Transformers: Revenge of the Fallen 2009 (1080p Bluray x265 HEVC 10bit AAC 5.1 Tigole)

Info

Plot: Sam Witwicky leaves the Autobots behind for a normal life. But when his mind is filled with cryptic symbols, the Decepticons target him and he is dragged back into the Transformers’ war.

Mediainfo

General
Format : Matroska
Format version : Version 4 / Version 2
File size : 3.40 GiB
Duration : 2h 29mn
Overall bit rate : 3 247 Kbps
Movie name : Transformers: Revenge of the Fallen
Encoded date : UTC 2017-03-26 03:27:37
Writing application : mkvmerge v9.6.0 ('Slave To Your Mind') 64bit
Writing library : libebml v1.3.4 + libmatroska v1.4.5

Video
ID : 1
Format : HEVC
Format/Info : High Efficiency Video Coding
Format profile : Main [email protected]@Main
Codec ID : V_MPEGH/ISO/HEVC
Duration : 2h 29mn
Bit rate : 2 738 Kbps
Width : 1 920 pixels
Height : 800 pixels
Display aspect ratio : 2.40:1
Frame rate mode : Constant
Frame rate : 23.976 (24000/1001) fps
Color space : YUV
Chroma subsampling : 4:2:0
Bit depth : 10 bits
Bits/(Pixel*Frame) : 0.074
Stream size : 2.87 GiB (84%)
Writing library : x265 2.3+22-db5e22b856f5:[Windows][GCC 6.3.0][64 bit] 10bit
Encoding settings : cpuid=1173503 / frame-threads=3 / numa-pools=8 / wpp / no-pmode / no-pme / no-psnr / no-ssim / log-level=2 / input-csp=1 / input-res=1920x800 / interlace=0 / total-frames=215617 / level-idc=0 / high-tier=1 / uhd-bd=0 / ref=3 / no-allow-non-conformance / no-repeat-headers / annexb / no-aud / no-hrd / info / hash=0 / no-temporal-layers / open-gop / min-keyint=23 / keyint=250 / bframes=4 / b-adapt=2 / b-pyramid / bframe-bias=0 / rc-lookahead=20 / lookahead-slices=5 / scenecut=40 / no-intra-refresh / ctu=64 / min-cu-size=8 / no-rect / no-amp / max-tu-size=32 / tu-inter-depth=1 / tu-intra-depth=1 / limit-tu=0 / rdoq-level=0 / dynamic-rd=0.00 / signhide / no-tskip / nr-intra=0 / nr-inter=0 / no-constrained-intra / strong-intra-smoothing / max-merge=2 / limit-refs=3 / no-limit-modes / me=1 / subme=2 / merange=57 / temporal-mvp / weightp / no-weightb / no-analyze-src-pics / deblock=0:0 / sao / no-sao-non-deblock / rd=3 / no-early-skip / rskip / no-fast-intra / no-tskip-fast / no-cu-lossless / no-b-intra / rdpenalty=0 / psy-rd=2.00 / psy-rdoq=0.00 / no-rd-refine / analysis-mode=0 / no-lossless / cbqpoffs=0 / crqpoffs=0 / rc=abr / bitrate=2738 / qcomp=0.60 / qpstep=4 / stats-write=0 / stats-read=2 / cplxblur=20.0 / qblur=0.5 / ipratio=1.40 / pbratio=1.30 / aq-mode=2 / aq-strength=1.00 / cutree / zone-count=0 / no-strict-cbr / qg-size=32 / no-rc-grain / qpmax=69 / qpmin=0 / sar=0 / overscan=0 / videoformat=5 / range=0 / colorprim=2 / transfer=2 / colormatrix=2 / chromaloc=0 / display-window=0 / max-cll=0,0 / min-luma=0 / max-luma=1023 / log2-max-poc-lsb=8 / vui-timing-info / vui-hrd-info / slices=1 / opt-qp-pps / opt-ref-list-length-pps / no-multi-pass-opt-rps / scenecut-bias=0.05 / no-opt-cu-delta-qp / no-aq-motion / no-hdr / no-hdr-opt / refine-level=5
Default : Yes
Forced : No

Audio #1
ID : 2
Format : AAC
Format/Info : Advanced Audio Codec
Format profile : LC
Codec ID : A_AAC
Duration : 2h 29mn
Bit rate : 328 Kbps
Channel(s) : 6 channels
Channel positions : Front: L C R, Side: L R, LFE
Sampling rate : 48.0 KHz
Frame rate : 46.875 fps (1024 spf)
Compression mode : Lossy
Delay relative to video : 20ms
Stream size : 352 MiB (10%)
Language : English
Default : Yes
Forced : No

Audio #2
ID : 3
Format : AAC
Format/Info : Advanced Audio Codec
Format profile : HE-AAC / LC
Codec ID : A_AAC
Duration : 2h 29mn
Bit rate : 66.2 Kbps
Channel(s) : 2 channels
Channel positions : Front: L R
Sampling rate : 48.0 KHz / 24.0 KHz
Frame rate : 23.438 fps (1024 spf)
Compression mode : Lossy
Delay relative to video : 40ms
Stream size : 70.6 MiB (2%)
Title : Commentary
Language : English
Default : No
Forced : No

Text #1
ID : 4
Format : VobSub
Muxing mode : zlib
Codec ID : S_VOBSUB
Codec ID/Info : Picture based subtitle format used on DVDs
Duration : 2h 21mn
Bit rate : 8 014 bps
Count of elements : 1977
Stream size : 8.13 MiB (0%)
Language : English
Default : No
Forced : No

Text #2
ID : 5
Format : VobSub
Muxing mode : zlib
Codec ID : S_VOBSUB
Codec ID/Info : Picture based subtitle format used on DVDs
Duration : 2h 22mn
Bit rate : 12.0 Kbps
Count of elements : 2453
Stream size : 12.3 MiB (0%)
Title : Commentary
Language : English
Default : No
Forced : No

Text #3
ID : 6
Format : VobSub
Muxing mode : zlib
Codec ID : S_VOBSUB
Codec ID/Info : Picture based subtitle format used on DVDs
Duration : 2h 28mn
Bit rate : 5 681 bps
Count of elements : 1475
Stream size : 6.05 MiB (0%)
Language : Danish
Default : No
Forced : No

Text #4
ID : 7
Format : VobSub
Muxing mode : zlib
Codec ID : S_VOBSUB
Codec ID/Info : Picture based subtitle format used on DVDs
Duration : 2h 28mn
Bit rate : 4 537 bps
Count of elements : 1489
Stream size : 4.83 MiB (0%)
Language : Dutch
Default : No
Forced : No

Text #5
ID : 8
Format : VobSub
Muxing mode : zlib
Codec ID : S_VOBSUB
Codec ID/Info : Picture based subtitle format used on DVDs
Duration : 2h 28mn
Bit rate : 5 008 bps
Count of elements : 1695
Stream size : 5.33 MiB (0%)
Language : Finnish
Default : No
Forced : No

Text #6
ID : 9
Format : VobSub
Muxing mode : zlib
Codec ID : S_VOBSUB
Codec ID/Info : Picture based subtitle format used on DVDs
Duration : 2h 28mn
Bit rate : 5 419 bps
Count of elements : 1727
Stream size : 5.77 MiB (0%)
Language : French
Default : No
Forced : No

Text #7
ID : 10
Format : VobSub
Muxing mode : zlib
Codec ID : S_VOBSUB
Codec ID/Info : Picture based subtitle format used on DVDs
Duration : 2h 29mn
Bit rate : 9 855 bps
Count of elements : 2454
Stream size : 10.6 MiB (0%)
Title : Commentary
Language : French
Default : No
Forced : No

Text #8
ID : 11
Format : VobSub
Muxing mode : zlib
Codec ID : S_VOBSUB
Codec ID/Info : Picture based subtitle format used on DVDs
Duration : 2h 28mn
Bit rate : 7 320 bps
Count of elements : 1866
Stream size : 7.80 MiB (0%)
Language : German
Default : No
Forced : No

Text #9
ID : 12
Format : VobSub
Muxing mode : zlib
Codec ID : S_VOBSUB
Codec ID/Info : Picture based subtitle format used on DVDs
Duration : 1h 58mn
Bit rate : 59 bps
Count of elements : 14
Stream size : 51.2 KiB (0%)
Title : Forced
Language : German
Default : No
Forced : No

Text #10
ID : 13
Format : VobSub
Muxing mode : zlib
Codec ID : S_VOBSUB
Codec ID/Info : Picture based subtitle format used on DVDs
Duration : 2h 29mn
Bit rate : 10.6 Kbps
Count of elements : 2454
Stream size : 11.3 MiB (0%)
Title : Commentary
Language : German
Default : No
Forced : No

Text #11
ID : 14
Format : VobSub
Muxing mode : zlib
Codec ID : S_VOBSUB
Codec ID/Info : Picture based subtitle format used on DVDs
Duration : 2h 28mn
Bit rate : 6 668 bps
Count of elements : 1867
Stream size : 7.10 MiB (0%)
Language : Italian
Default : No
Forced : No

Text #12
ID : 15
Format : VobSub
Muxing mode : zlib
Codec ID : S_VOBSUB
Codec ID/Info : Picture based subtitle format used on DVDs
Duration : 2h 29mn
Bit rate : 10.3 Kbps
Count of elements : 2454
Stream size : 11.1 MiB (0%)
Title : Commentary
Language : Italian
Default : No
Forced : No

Text #13
ID : 16
Format : VobSub
Muxing mode : zlib
Codec ID : S_VOBSUB
Codec ID/Info : Picture based subtitle format used on DVDs
Duration : 2h 28mn
Bit rate : 5 122 bps
Count of elements : 1763
Stream size : 5.46 MiB (0%)
Language : Norwegian Bokmal
Default : No
Forced : No

Text #14
ID : 17
Format : VobSub
Muxing mode : zlib
Codec ID : S_VOBSUB
Codec ID/Info : Picture based subtitle format used on DVDs
Duration : 2h 28mn
Bit rate : 6 500 bps
Count of elements : 1852
Stream size : 6.92 MiB (0%)
Language : Spanish
Default : No
Forced : No

Text #15
ID : 18
Format : VobSub
Muxing mode : zlib
Codec ID : S_VOBSUB
Codec ID/Info : Picture based subtitle format used on DVDs
Duration : 2h 29mn
Bit rate : 10.2 Kbps
Count of elements : 2453
Stream size : 10.9 MiB (0%)
Title : Commentary
Language : Spanish
Default : No
Forced : No

Text #16
ID : 19
Format : VobSub
Muxing mode : zlib
Codec ID : S_VOBSUB
Codec ID/Info : Picture based subtitle format used on DVDs
Duration : 2h 28mn
Bit rate : 5 933 bps
Count of elements : 1552
Stream size : 6.32 MiB (0%)
Language : Swedish
Default : No
Forced : No

Menu
00:00:00.000 : en:Chapter 01
00:08:49.278 : en:Chapter 02
00:14:52.641 : en:Chapter 03
00:18:18.013 : en:Chapter 04
00:25:07.631 : en:Chapter 05
00:33:00.520 : en:Chapter 06
00:37:07.767 : en:Chapter 07
00:43:33.652 : en:Chapter 08
00:54:56.543 : en:Chapter 09
01:03:23.883 : en:Chapter 10
01:12:26.008 : en:Chapter 11
01:20:12.182 : en:Chapter 12
01:26:35.064 : en:Chapter 13
01:35:41.152 : en:Chapter 14
01:44:54.079 : en:Chapter 15
01:50:34.711 : en:Chapter 16
01:59:01.801 : en:Chapter 17
02:07:13.709 : en:Chapter 18
02:15:05.305 : en:Chapter 19
02:22:14.817 : en:Chapter 20

Download

File: Transformers – Revenge of the Fallen 2009 (1080p x265 10bit Tigole).mkv (3.4 GB)

Movie: Google Drive

Featurettes: Google Drive

1 thought on “Transformers: Revenge of the Fallen 2009 (1080p Bluray x265 HEVC 10bit AAC 5.1 Tigole)

Leave a Reply