Transformers 2007 (1080p Bluray x265 HEVC 10bit AAC 5.1 Tigole)

Info

Plot: An ancient struggle between two Cybertronian races, the heroic Autobots and the evil Decepticons, comes to Earth, with a clue to the ultimate power held by a teenager.

IMDb: 7.1/10

Mediainfo

General
Format : Matroska
Format version : Version 4 / Version 2
File size : 3.27 GiB
Duration : 2h 23mn
Overall bit rate : 3 267 Kbps
Movie name : Transformers
Encoded date : UTC 2017-03-26 10:28:29
Writing application : mkvmerge v9.6.0 ('Slave To Your Mind') 64bit
Writing library : libebml v1.3.4 + libmatroska v1.4.5

Video
ID : 1
Format : HEVC
Format/Info : High Efficiency Video Coding
Format profile : Main [email protected]@Main
Codec ID : V_MPEGH/ISO/HEVC
Duration : 2h 23mn
Bit rate : 2 729 Kbps
Width : 1 920 pixels
Height : 800 pixels
Display aspect ratio : 2.40:1
Frame rate mode : Constant
Frame rate : 23.976 (24000/1001) fps
Color space : YUV
Chroma subsampling : 4:2:0
Bit depth : 10 bits
Bits/(Pixel*Frame) : 0.074
Stream size : 2.73 GiB (84%)
Writing library : x265 2.3+22-db5e22b856f5:[Windows][GCC 6.3.0][64 bit] 10bit
Encoding settings : cpuid=1173503 / frame-threads=3 / numa-pools=8 / wpp / no-pmode / no-pme / no-psnr / no-ssim / log-level=2 / input-csp=1 / input-res=1920x800 / interlace=0 / total-frames=206369 / level-idc=0 / high-tier=1 / uhd-bd=0 / ref=3 / no-allow-non-conformance / no-repeat-headers / annexb / no-aud / no-hrd / info / hash=0 / no-temporal-layers / open-gop / min-keyint=23 / keyint=250 / bframes=4 / b-adapt=2 / b-pyramid / bframe-bias=0 / rc-lookahead=20 / lookahead-slices=5 / scenecut=40 / no-intra-refresh / ctu=64 / min-cu-size=8 / no-rect / no-amp / max-tu-size=32 / tu-inter-depth=1 / tu-intra-depth=1 / limit-tu=0 / rdoq-level=0 / dynamic-rd=0.00 / signhide / no-tskip / nr-intra=0 / nr-inter=0 / no-constrained-intra / strong-intra-smoothing / max-merge=2 / limit-refs=3 / no-limit-modes / me=1 / subme=2 / merange=57 / temporal-mvp / weightp / no-weightb / no-analyze-src-pics / deblock=0:0 / sao / no-sao-non-deblock / rd=3 / no-early-skip / rskip / no-fast-intra / no-tskip-fast / no-cu-lossless / no-b-intra / rdpenalty=0 / psy-rd=2.00 / psy-rdoq=0.00 / no-rd-refine / analysis-mode=0 / no-lossless / cbqpoffs=0 / crqpoffs=0 / rc=abr / bitrate=2729 / qcomp=0.60 / qpstep=4 / stats-write=0 / stats-read=2 / cplxblur=20.0 / qblur=0.5 / ipratio=1.40 / pbratio=1.30 / aq-mode=2 / aq-strength=1.00 / cutree / zone-count=0 / no-strict-cbr / qg-size=32 / no-rc-grain / qpmax=69 / qpmin=0 / sar=0 / overscan=0 / videoformat=5 / range=0 / colorprim=2 / transfer=2 / colormatrix=2 / chromaloc=0 / display-window=0 / max-cll=0,0 / min-luma=0 / max-luma=1023 / log2-max-poc-lsb=8 / vui-timing-info / vui-hrd-info / slices=1 / opt-qp-pps / opt-ref-list-length-pps / no-multi-pass-opt-rps / scenecut-bias=0.05 / no-opt-cu-delta-qp / no-aq-motion / no-hdr / no-hdr-opt / refine-level=5
Default : Yes
Forced : No

Audio #1
ID : 2
Format : AAC
Format/Info : Advanced Audio Codec
Format profile : LC
Codec ID : A_AAC
Duration : 2h 23mn
Bit rate : 337 Kbps
Channel(s) : 6 channels
Channel positions : Front: L C R, Side: L R, LFE
Sampling rate : 48.0 KHz
Frame rate : 46.875 fps (1024 spf)
Compression mode : Lossy
Delay relative to video : 20ms
Stream size : 346 MiB (10%)
Language : English
Default : Yes
Forced : No

Audio #2
ID : 3
Format : AAC
Format/Info : Advanced Audio Codec
Format profile : HE-AAC / LC
Codec ID : A_AAC
Duration : 2h 23mn
Bit rate : 66.2 Kbps
Channel(s) : 2 channels
Channel positions : Front: L R
Sampling rate : 48.0 KHz / 24.0 KHz
Frame rate : 23.438 fps (1024 spf)
Compression mode : Lossy
Delay relative to video : 40ms
Stream size : 67.5 MiB (2%)
Title : Commentary
Language : English
Default : No
Forced : No

Text #1
ID : 4
Format : VobSub
Muxing mode : zlib
Codec ID : S_VOBSUB
Codec ID/Info : Picture based subtitle format used on DVDs
Duration : 2h 21mn
Bit rate : 7 878 bps
Count of elements : 2031
Stream size : 7.98 MiB (0%)
Language : English
Default : No
Forced : No

Text #2
ID : 5
Format : VobSub
Muxing mode : zlib
Codec ID : S_VOBSUB
Codec ID/Info : Picture based subtitle format used on DVDs
Duration : 2h 18mn
Bit rate : 9 230 bps
Count of elements : 1768
Stream size : 9.18 MiB (0%)
Title : Commentary
Language : English
Default : No
Forced : No

Text #3
ID : 6
Format : PGS
Muxing mode : zlib
Codec ID : S_HDMV/PGS
Codec ID/Info : Picture based subtitle format used on BDs/HD-DVDs
Duration : 2h 14mn
Bit rate : 7 393 bps
Count of elements : 3732
Stream size : 7.11 MiB (0%)
Title : Trivia
Language : English
Default : No
Forced : No

Text #4
ID : 7
Format : VobSub
Muxing mode : zlib
Codec ID : S_VOBSUB
Codec ID/Info : Picture based subtitle format used on DVDs
Duration : 2h 22mn
Bit rate : 5 242 bps
Count of elements : 1683
Stream size : 5.35 MiB (0%)
Language : Danish
Default : No
Forced : No

Text #5
ID : 8
Format : VobSub
Muxing mode : zlib
Codec ID : S_VOBSUB
Codec ID/Info : Picture based subtitle format used on DVDs
Duration : 2h 22mn
Bit rate : 4 200 bps
Count of elements : 1470
Stream size : 4.28 MiB (0%)
Language : Dutch
Default : No
Forced : No

Text #6
ID : 9
Format : VobSub
Muxing mode : zlib
Codec ID : S_VOBSUB
Codec ID/Info : Picture based subtitle format used on DVDs
Duration : 2h 22mn
Bit rate : 4 547 bps
Count of elements : 1631
Stream size : 4.64 MiB (0%)
Language : Finnish
Default : No
Forced : No

Text #7
ID : 10
Format : VobSub
Muxing mode : zlib
Codec ID : S_VOBSUB
Codec ID/Info : Picture based subtitle format used on DVDs
Duration : 2h 22mn
Bit rate : 5 039 bps
Count of elements : 1637
Stream size : 5.14 MiB (0%)
Language : French
Default : No
Forced : No

Text #8
ID : 11
Format : VobSub
Muxing mode : zlib
Codec ID : S_VOBSUB
Codec ID/Info : Picture based subtitle format used on DVDs
Duration : 2h 22mn
Bit rate : 7 336 bps
Count of elements : 1769
Stream size : 7.48 MiB (0%)
Title : Commentary
Language : French
Default : No
Forced : No

Text #9
ID : 12
Format : VobSub
Muxing mode : zlib
Codec ID : S_VOBSUB
Codec ID/Info : Picture based subtitle format used on DVDs
Duration : 2h 22mn
Bit rate : 7 595 bps
Count of elements : 1873
Stream size : 7.75 MiB (0%)
Language : German
Default : No
Forced : No

Text #10
ID : 13
Format : VobSub
Muxing mode : zlib
Codec ID : S_VOBSUB
Codec ID/Info : Picture based subtitle format used on DVDs
Duration : 1h 37mn
Bit rate : 96 bps
Count of elements : 17
Stream size : 68.8 KiB (0%)
Title : Forced
Language : German
Default : No
Forced : No

Text #11
ID : 14
Format : VobSub
Muxing mode : zlib
Codec ID : S_VOBSUB
Codec ID/Info : Picture based subtitle format used on DVDs
Duration : 2h 22mn
Bit rate : 9 221 bps
Count of elements : 1769
Stream size : 9.41 MiB (0%)
Title : Commentary
Language : German
Default : No
Forced : No

Text #12
ID : 15
Format : VobSub
Muxing mode : zlib
Codec ID : S_VOBSUB
Codec ID/Info : Picture based subtitle format used on DVDs
Duration : 2h 22mn
Bit rate : 5 031 bps
Count of elements : 1550
Stream size : 5.13 MiB (0%)
Language : Greek
Default : No
Forced : No

Text #13
ID : 16
Format : VobSub
Muxing mode : zlib
Codec ID : S_VOBSUB
Codec ID/Info : Picture based subtitle format used on DVDs
Duration : 2h 22mn
Bit rate : 5 061 bps
Count of elements : 1698
Stream size : 5.16 MiB (0%)
Language : Hungarian
Default : No
Forced : No

Text #14
ID : 17
Format : VobSub
Muxing mode : zlib
Codec ID : S_VOBSUB
Codec ID/Info : Picture based subtitle format used on DVDs
Duration : 2h 22mn
Bit rate : 6 346 bps
Count of elements : 1875
Stream size : 6.47 MiB (0%)
Language : Italian
Default : No
Forced : No

Text #15
ID : 18
Format : VobSub
Muxing mode : zlib
Codec ID : S_VOBSUB
Codec ID/Info : Picture based subtitle format used on DVDs
Duration : 2h 22mn
Bit rate : 8 213 bps
Count of elements : 1769
Stream size : 8.38 MiB (0%)
Title : Commentary
Language : Italian
Default : No
Forced : No

Text #16
ID : 19
Format : VobSub
Muxing mode : zlib
Codec ID : S_VOBSUB
Codec ID/Info : Picture based subtitle format used on DVDs
Duration : 2h 22mn
Bit rate : 4 678 bps
Count of elements : 1683
Stream size : 4.77 MiB (0%)
Language : Norwegian Bokmal
Default : No
Forced : No

Text #17
ID : 20
Format : VobSub
Muxing mode : zlib
Codec ID : S_VOBSUB
Codec ID/Info : Picture based subtitle format used on DVDs
Duration : 2h 22mn
Bit rate : 4 789 bps
Count of elements : 1662
Stream size : 4.88 MiB (0%)
Language : Polish
Default : No
Forced : No

Text #18
ID : 21
Format : VobSub
Muxing mode : zlib
Codec ID : S_VOBSUB
Codec ID/Info : Picture based subtitle format used on DVDs
Duration : 2h 22mn
Bit rate : 5 980 bps
Count of elements : 1738
Stream size : 6.10 MiB (0%)
Language : Portuguese
Default : No
Forced : No

Text #19
ID : 22
Format : VobSub
Muxing mode : zlib
Codec ID : S_VOBSUB
Codec ID/Info : Picture based subtitle format used on DVDs
Duration : 2h 22mn
Bit rate : 5 328 bps
Count of elements : 1675
Stream size : 5.43 MiB (0%)
Language : Spanish
Default : No
Forced : No

Text #20
ID : 23
Format : VobSub
Muxing mode : zlib
Codec ID : S_VOBSUB
Codec ID/Info : Picture based subtitle format used on DVDs
Duration : 2h 22mn
Bit rate : 7 862 bps
Count of elements : 1769
Stream size : 8.02 MiB (0%)
Title : Commentary
Language : Spanish
Default : No
Forced : No

Text #21
ID : 24
Format : VobSub
Muxing mode : zlib
Codec ID : S_VOBSUB
Codec ID/Info : Picture based subtitle format used on DVDs
Duration : 2h 22mn
Bit rate : 5 074 bps
Count of elements : 1654
Stream size : 5.17 MiB (0%)
Language : Swedish
Default : No
Forced : No

Text #22
ID : 25
Format : VobSub
Muxing mode : zlib
Codec ID : S_VOBSUB
Codec ID/Info : Picture based subtitle format used on DVDs
Duration : 2h 22mn
Bit rate : 5 494 bps
Count of elements : 1716
Stream size : 5.60 MiB (0%)
Language : Turkish
Default : No
Forced : No

Menu
00:00:00.000 : en:Chapter 01
00:02:04.707 : en:Chapter 02
00:08:54.534 : en:Chapter 03
00:15:33.641 : en:Chapter 04
00:22:21.381 : en:Chapter 05
00:27:42.661 : en:Chapter 06
00:33:25.378 : en:Chapter 07
00:38:58.002 : en:Chapter 08
00:45:13.919 : en:Chapter 09
00:51:46.436 : en:Chapter 10
00:58:44.687 : en:Chapter 11
01:06:48.421 : en:Chapter 12
01:11:53.559 : en:Chapter 13
01:16:56.445 : en:Chapter 14
01:23:37.345 : en:Chapter 15
01:29:04.172 : en:Chapter 16
01:36:28.741 : en:Chapter 17
01:43:58.106 : en:Chapter 18
01:49:45.745 : en:Chapter 19
01:56:54.007 : en:Chapter 20
02:03:09.882 : en:Chapter 21
02:10:43.919 : en:Chapter 22
02:15:02.302 : en:Chapter 23

Download

File: Transformers 2007 (1080p x265 10bit Tigole).mkv (3.27 GB)

Movie: Google Drive

Featurettes: Google Drive

Leave a Reply