Titanic (1997) (1080p BluRay 10bit x265 HEVC DTS-HD MA 5.1 Qman)

Info

Plot: 84 years later, a 101-year-old woman named Rose DeWitt Bukater tells the story to her granddaughter Lizzy Calvert, Brock Lovett, Lewis Bodine, Bobby Buell and Anatoly Mikailavich on the Keldysh about her life set in April 10th 1912, on a ship called Titanic when young Rose boards the departing ship with the upper-class passengers and her mother, Ruth DeWitt Bukater, and her fiancé, Caledon Hockley. Meanwhile, a drifter and artist named Jack Dawson and his best friend Fabrizio De Rossi win third-class tickets to the ship in a game. And she explains the whole story from departure until the death of Titanic on its first and last voyage April 15th, 1912 at 2:20 in the morning.

Encode

Release: 
REMUX 39.9GB FraMeSToR

Mediainfo

General 
Format : Matroska 
Format version : Version 4 / Version 2 
File size : 15.2 GiB 
Duration : 3 h 14 min 
Overall bit rate : 11.2 Mb/s 
Encoded date : UTC 2018-04-17 03:04:38 
Writing application : mkvmerge v19.0.0 ('Brave Captain') 64-bit 
Writing library : libebml v1.3.5 + libmatroska v1.4.8 

Video 
ID : 1 
Format : HEVC 
Format/Info : High Efficiency Video Coding 
Format profile : Main [email protected]@Main 
Codec ID : V_MPEGH/ISO/HEVC 
Duration : 3 h 14 min 
Bit rate : 6 573 kb/s 
Width : 1 920 pixels 
Height : 1 080 pixels 
Display aspect ratio : 16:9 
Frame rate mode : Constant 
Frame rate : 23.976 (24000/1001) FPS 
Color space : YUV 
Chroma subsampling : 4:2:0 
Bit depth : 10 bits 
Bits/(Pixel*Frame) : 0.132 
Stream size : 8.94 GiB (59%) 
Writing library : x265 2.7+340-aa9102400f24:[Windows][MSVC 1914][64 bit] 10bit 
Encoding settings : cpuid=1111039 / frame-threads=4 / numa-pools=16 / wpp / no-pmode / no-pme / no-psnr / no-ssim / log-level=2 / input-csp=1 / input-res=1920x1080 / interlace=0 / total-frames=280272 / level-idc=0 / high-tier=1 / uhd-bd=0 / ref=4 / no-allow-non-conformance / no-repeat-headers / annexb / no-aud / no-hrd / info / hash=0 / no-temporal-layers / open-gop / min-keyint=23 / keyint=250 / gop-lookahead=0 / bframes=8 / b-adapt=2 / b-pyramid / bframe-bias=0 / rc-lookahead=80 / lookahead-slices=4 / scenecut=40 / radl=0 / no-intra-refresh / ctu=64 / min-cu-size=8 / rect / amp / max-tu-size=32 / tu-inter-depth=1 / tu-intra-depth=1 / limit-tu=0 / rdoq-level=2 / dynamic-rd=0.00 / no-ssim-rd / signhide / no-tskip / nr-intra=0 / nr-inter=0 / no-constrained-intra / no-strong-intra-smoothing / max-merge=3 / limit-refs=3 / limit-modes / me=3 / subme=3 / merange=57 / temporal-mvp / weightp / no-weightb / no-analyze-src-pics / deblock=-1:-1 / no-sao / no-sao-non-deblock / rd=4 / no-early-skip / no-rskip / no-fast-intra / no-tskip-fast / no-cu-lossless / b-intra / no-splitrd-skip / rdpenalty=0 / psy-rd=1.00 / psy-rdoq=5.00 / no-rd-refine / no-lossless / cbqpoffs=-3 / crqpoffs=-3 / rc=crf / crf=18.0 / qcomp=0.60 / qpstep=4 / stats-write=0 / stats-read=0 / ipratio=1.40 / pbratio=1.30 / aq-mode=3 / aq-strength=0.60 / cutree / zone-count=0 / no-strict-cbr / qg-size=32 / no-rc-grain / qpmax=69 / qpmin=0 / no-const-vbv / sar=0 / overscan=0 / videoformat=5 / range=0 / colorprim=2 / transfer=2 / colormatrix=2 / chromaloc=0 / display-window=0 / max-cll=0,0 / min-luma=0 / max-luma=1023 / log2-max-poc-lsb=8 / vui-timing-info / vui-hrd-info / slices=1 / no-opt-qp-pps / no-opt-ref-list-length-pps / no-multi-pass-opt-rps / scenecut-bias=0.05 / no-opt-cu-delta-qp / aq-motion / no-hdr / no-hdr-opt / no-dhdr10-opt / no-idr-recovery-sei / analysis-reuse-level=5 / scale-factor=0 / refine-intra=0 / refine-inter=0 / refine-mv=0 / no-limit-sao / ctu-info=0 / no-lowpass-dct / refine-mv-type=0 / copy-pic=1 / max-ausize-factor=1.0 / no-dynamic-refine / no-single-sei 
Language : English 
Default : Yes 
Forced : No 

Audio #1 
ID : 2 
Format : DTS 
Format/Info : Digital Theater Systems 
Format profile : MA / Core 
Mode : 16 
Format settings, Endianness : Big 
Codec ID : A_DTS 
Duration : 3 h 14 min 
Bit rate mode : Variable / Constant 
Bit rate : 3 840 kb/s / 1 509 kb/s 
Channel(s) : 6 channels 
Channel positions : Front: L C R, Side: L R, LFE 
Sampling rate : 48.0 kHz 
Frame rate : 93.750 FPS (512 spf) 
Bit depth : 24 bits 
Compression mode : Lossless / Lossy 
Stream size : 5.30 GiB (35%) 
Language : English 
Default : Yes 
Forced : No 

Audio #2 
ID : 3 
Format : AC-3 
Format/Info : Audio Coding 3 
Mode extension : CM (complete main) 
Format settings, Endianness : Big 
Codec ID : A_AC3 
Duration : 3 h 14 min 
Bit rate mode : Constant 
Bit rate : 224 kb/s 
Channel(s) : 2 channels 
Channel positions : Front: L R 
Sampling rate : 48.0 kHz 
Frame rate : 31.250 FPS (1536 spf) 
Bit depth : 16 bits 
Compression mode : Lossy 
Stream size : 312 MiB (2%) 
Language : English 
Default : No 
Forced : No 

Audio #3 
ID : 4 
Format : AC-3 
Format/Info : Audio Coding 3 
Mode extension : CM (complete main) 
Format settings, Endianness : Big 
Codec ID : A_AC3 
Duration : 3 h 14 min 
Bit rate mode : Constant 
Bit rate : 224 kb/s 
Channel(s) : 2 channels 
Channel positions : Front: L R 
Sampling rate : 48.0 kHz 
Frame rate : 31.250 FPS (1536 spf) 
Bit depth : 16 bits 
Compression mode : Lossy 
Stream size : 312 MiB (2%) 
Language : English 
Default : No 
Forced : No 

Audio #4 
ID : 5 
Format : AC-3 
Format/Info : Audio Coding 3 
Mode extension : CM (complete main) 
Format settings, Endianness : Big 
Codec ID : A_AC3 
Duration : 3 h 14 min 
Bit rate mode : Constant 
Bit rate : 224 kb/s 
Channel(s) : 2 channels 
Channel positions : Front: L R 
Sampling rate : 48.0 kHz 
Frame rate : 31.250 FPS (1536 spf) 
Bit depth : 16 bits 
Compression mode : Lossy 
Stream size : 312 MiB (2%) 
Language : English 
Default : No 
Forced : No 

Subtitle #1 
ID : 6 
Format : PGS 
Muxing mode : zlib 
Codec ID : S_HDMV/PGS 
Codec ID/Info : Picture based subtitle format used on BDs/HD-DVDs 
Duration : 3 h 1 min 
Bit rate : 13.7 kb/s 
Count of elements : 4208 
Stream size : 17.8 MiB (0%) 
Language : English 
Default : Yes 
Forced : No 

Subtitle #2 
ID : 7 
Format : PGS 
Muxing mode : zlib 
Codec ID : S_HDMV/PGS 
Codec ID/Info : Picture based subtitle format used on BDs/HD-DVDs 
Duration : 3 h 9 min 
Bit rate : 15.7 kb/s 
Count of elements : 5208 
Stream size : 21.3 MiB (0%) 
Language : English 
Default : No 
Forced : No 

Menu 
00:00:00.000 : en:00:00:00.000 
00:01:24.376 : en:00:01:24.376 
00:04:39.988 : en:00:04:39.988 
00:08:26.131 : en:00:08:26.131 
00:10:46.771 : en:00:10:46.771 
00:12:52.647 : en:00:12:52.647 
00:16:52.428 : en:00:16:52.428 
00:20:07.748 : en:00:20:07.748 
00:23:38.876 : en:00:23:38.876 
00:26:26.543 : en:00:26:26.543 
00:29:03.366 : en:00:29:03.366 
00:29:37.526 : en:00:29:37.526 
00:34:59.931 : en:00:34:59.931 
00:36:48.623 : en:00:36:48.623 
00:42:59.160 : en:00:42:59.160 
00:45:26.098 : en:00:45:26.098 
00:47:11.620 : en:00:47:11.620 
00:53:33.043 : en:00:53:33.043 
00:56:47.988 : en:00:56:47.988 
01:05:32.053 : en:01:05:32.053 
01:10:19.965 : en:01:10:19.965 
01:14:06.358 : en:01:14:06.358 
01:16:10.691 : en:01:16:10.691 
01:19:59.044 : en:01:19:59.044 
01:22:50.507 : en:01:22:50.507 
01:23:40.056 : en:01:23:40.056 
01:28:21.629 : en:01:28:21.629 
01:29:19.854 : en:01:29:19.854 
01:32:52.275 : en:01:32:52.275 
01:36:59.104 : en:01:36:59.104 
01:44:41.149 : en:01:44:41.149 
01:46:21.041 : en:01:46:21.041 
01:47:58.847 : en:01:47:58.847 
01:50:11.104 : en:01:50:11.104 
01:52:21.401 : en:01:52:21.401 
01:53:54.327 : en:01:53:54.327 
01:55:21.831 : en:01:55:21.831 
01:56:10.880 : en:01:56:10.880 
01:57:53.232 : en:01:57:53.232 
02:06:38.340 : en:02:06:38.340 
02:08:49.972 : en:02:08:49.972 
02:11:22.082 : en:02:11:22.082 
02:15:42.550 : en:02:15:42.550 
02:19:43.458 : en:02:19:43.458 
02:21:24.559 : en:02:21:24.559 
02:25:28.761 : en:02:25:28.761 
02:27:28.422 : en:02:27:28.422 
02:29:07.271 : en:02:29:07.271 
02:29:56.695 : en:02:29:56.695 
02:33:31.535 : en:02:33:31.535 
02:36:52.360 : en:02:36:52.360 
02:38:33.878 : en:02:38:33.878 
02:40:34.666 : en:02:40:34.666 
02:45:00.640 : en:02:45:00.640 
02:47:48.808 : en:02:47:48.808 
02:49:22.526 : en:02:49:22.526 
02:52:09.610 : en:02:52:09.610 
02:53:41.327 : en:02:53:41.327 
02:57:53.495 : en:02:57:53.495 
02:59:35.305 : en:02:59:35.305 
03:01:29.252 : en:03:01:29.252 
03:03:13.648 : en:03:03:13.648 
03:04:57.877 : en:03:04:57.877 
03:07:19.644 : en:03:07:19.644

Download

File: Titanic.(1997).1080p.BluRay.10-bit.x265.DTS-HD.MA.5.1-Qman[UTR].mkv (15.2 GB)

Movie: Google Drive

Leave a Reply