Tiger Zinda Hai (2017) (1080p BluRay x265 HEVC 10bit AAC 7.1 Hindi Natty)

Info

Plot: RAW agent Tiger/Avinash Singh Rathore returns from the dead to take on an international terrorist organisation but this time he has his wife Zoya by his side.

Encode

Source:

TIGER ZINDA HAI (2017) Untouched BD50 - Atmos 7.1 Esubs - DTone Exclusive 43 GB @DesiTorrents

Mediainfo

General 
Format : Matroska 
Format version : Version 4 / Version 2 
File size : 4.64 GiB 
Duration : 2 h 39 min 
Overall bit rate : 4 157 kb/s 
Movie name : Tiger Zinda Hai 2017 
Encoded date : UTC 2018-03-11 07:45:43 
Writing application : mkvmerge v21.0.0 ('Tardigrades Will Inherit The Earth') 64-bit 
Writing library : libebml v1.3.5 + libmatroska v1.4.8 
Writing frontend : Natty 

Video 
ID : 1 
Format : HEVC 
Format/Info : High Efficiency Video Coding 
Format profile : Main [email protected]@Main 
Codec ID : V_MPEGH/ISO/HEVC 
Duration : 2 h 39 min 
Bit rate : 3 335 kb/s 
Width : 1 920 pixels 
Height : 820 pixels 
Display aspect ratio : 2.35:1 
Frame rate mode : Constant 
Frame rate : 24.000 FPS 
Color space : YUV 
Chroma subsampling : 4:2:0 
Bit depth : 10 bits 
Bits/(Pixel*Frame) : 0.088 
Stream size : 3.72 GiB (80%) 
Writing library : x265 2.7+8-613d9f443769:[Windows][MSVC 1913][64 bit] 10bit 
Encoding settings : cpuid=1173503 / frame-threads=2 / numa-pools=4 / wpp / no-pmode / no-pme / no-psnr / no-ssim / log-level=2 / input-csp=1 / input-res=1920x820 / interlace=0 / total-frames=230219 / level-idc=0 / high-tier=1 / uhd-bd=0 / ref=5 / no-allow-non-conformance / no-repeat-headers / annexb / no-aud / no-hrd / info / hash=0 / no-temporal-layers / open-gop / min-keyint=24 / keyint=400 / gop-lookahead=0 / bframes=8 / b-adapt=2 / b-pyramid / bframe-bias=0 / rc-lookahead=100 / lookahead-slices=4 / scenecut=40 / radl=0 / no-intra-refresh / ctu=32 / min-cu-size=8 / no-rect / no-amp / max-tu-size=16 / tu-inter-depth=1 / tu-intra-depth=1 / limit-tu=0 / rdoq-level=0 / dynamic-rd=0.00 / no-ssim-rd / signhide / no-tskip / nr-intra=0 / nr-inter=0 / no-constrained-intra / no-strong-intra-smoothing / max-merge=2 / limit-refs=3 / limit-modes / me=3 / subme=5 / merange=57 / temporal-mvp / weightp / weightb / no-analyze-src-pics / deblock=-3:0 / no-sao / no-sao-non-deblock / rd=4 / no-early-skip / rskip / no-fast-intra / no-tskip-fast / no-cu-lossless / no-b-intra / no-splitrd-skip / rdpenalty=0 / psy-rd=0.00 / psy-rdoq=0.00 / no-rd-refine / no-lossless / cbqpoffs=0 / crqpoffs=0 / rc=abr / bitrate=3333 / qcomp=0.70 / qpstep=4 / stats-write=0 / stats-read=2 / cplxblur=20.0 / qblur=0.5 / ipratio=1.40 / pbratio=1.30 / aq-mode=3 / aq-strength=0.90 / cutree / zone-count=0 / no-strict-cbr / qg-size=32 / no-rc-grain / qpmax=69 / qpmin=0 / no-const-vbv / sar=0 / overscan=0 / videoformat=5 / range=0 / colorprim=1 / transfer=1 / colormatrix=1 / chromaloc=0 / display-window=0 / max-cll=0,0 / min-luma=0 / max-luma=1023 / log2-max-poc-lsb=8 / vui-timing-info / vui-hrd-info / slices=1 / no-opt-qp-pps / no-opt-ref-list-length-pps / multi-pass-opt-rps / scenecut-bias=0.05 / no-opt-cu-delta-qp / aq-motion / no-hdr / no-hdr-opt / no-dhdr10-opt / analysis-reuse-level=8 / scale-factor=0 / refine-intra=0 / refine-inter=0 / refine-mv=0 / no-limit-sao / ctu-info=0 / no-lowpass-dct / refine-mv-type=0 / copy-pic=1 / max-ausize-factor=1.0 
Default : Yes 
Forced : No 
Color range : Limited 
Color primaries : BT.709 
Transfer characteristics : BT.709 
Matrix coefficients : BT.709 

Audio 
ID : 2 
Format : AAC 
Format/Info : Advanced Audio Codec 
Format profile : LC 
Codec ID : A_AAC 
Duration : 2 h 39 min 
Bit rate : 722 kb/s 
Channel(s) : 8 channels 
Channel positions : Front: L C R, Side: 4, LFE 
Sampling rate : 48.0 kHz 
Frame rate : 46.875 FPS (1024 spf) 
Compression mode : Lossy 
Delay relative to video : 20 ms 
Stream size : 826 MiB (17%) 
Language : Hindi 
Default : No 
Forced : No 

Subtitle #1 
ID : 3 
Format : PGS 
Muxing mode : zlib 
Codec ID : S_HDMV/PGS 
Codec ID/Info : Picture based subtitle format used on BDs/HD-DVDs 
Duration : 2 h 33 min 
Bit rate : 21.8 kb/s 
Count of elements : 3016 
Stream size : 23.9 MiB (1%) 
Language : English 
Default : Yes 
Forced : No 

Subtitle #2 
ID : 4 
Format : PGS 
Muxing mode : zlib 
Codec ID : S_HDMV/PGS 
Codec ID/Info : Picture based subtitle format used on BDs/HD-DVDs 
Duration : 2 h 23 min 
Bit rate : 1 413 b/s 
Count of elements : 216 
Stream size : 1.45 MiB (0%) 
Language : Hindi 
Default : No 
Forced : No 

Subtitle #3 
ID : 5 
Format : PGS 
Muxing mode : zlib 
Codec ID : S_HDMV/PGS 
Codec ID/Info : Picture based subtitle format used on BDs/HD-DVDs 
Duration : 2 h 35 min 
Bit rate : 15.4 kb/s 
Count of elements : 3068 
Stream size : 17.1 MiB (0%) 
Language : Arabic 
Default : No 
Forced : No 

Subtitle #4 
ID : 6 
Format : PGS 
Muxing mode : zlib 
Codec ID : S_HDMV/PGS 
Codec ID/Info : Picture based subtitle format used on BDs/HD-DVDs 
Duration : 2 h 35 min 
Bit rate : 26.5 kb/s 
Count of elements : 3068 
Stream size : 29.3 MiB (1%) 
Language : Malay 
Default : No 
Forced : No 

Subtitle #5 
ID : 7 
Format : PGS 
Muxing mode : zlib 
Codec ID : S_HDMV/PGS 
Codec ID/Info : Picture based subtitle format used on BDs/HD-DVDs 
Duration : 2 h 35 min 
Bit rate : 25.9 kb/s 
Count of elements : 3068 
Stream size : 28.7 MiB (1%) 
Language : Indonesian 
Default : No 
Forced : No 

Subtitle #6 
ID : 8 
Format : PGS 
Muxing mode : zlib 
Codec ID : S_HDMV/PGS 
Codec ID/Info : Picture based subtitle format used on BDs/HD-DVDs 
Duration : 2 h 35 min 
Bit rate : 21.9 kb/s 
Count of elements : 3068 
Stream size : 24.3 MiB (1%) 
Language : Thai 
Default : No 
Forced : No 

Subtitle #7 
ID : 9 
Format : PGS 
Muxing mode : zlib 
Codec ID : S_HDMV/PGS 
Codec ID/Info : Picture based subtitle format used on BDs/HD-DVDs 
Duration : 2 h 35 min 
Bit rate : 24.5 kb/s 
Count of elements : 3068 
Stream size : 27.2 MiB (1%) 
Language : Spanish 
Default : No 
Forced : No 

Subtitle #8 
ID : 10 
Format : PGS 
Muxing mode : zlib 
Codec ID : S_HDMV/PGS 
Codec ID/Info : Picture based subtitle format used on BDs/HD-DVDs 
Duration : 2 h 35 min 
Bit rate : 23.5 kb/s 
Count of elements : 3068 
Stream size : 26.1 MiB (1%) 
Language : French 
Default : No 
Forced : No 

Subtitle #9 
ID : 11 
Format : PGS 
Muxing mode : zlib 
Codec ID : S_HDMV/PGS 
Codec ID/Info : Picture based subtitle format used on BDs/HD-DVDs 
Duration : 2 h 35 min 
Bit rate : 24.3 kb/s 
Count of elements : 3068 
Stream size : 26.9 MiB (1%) 
Language : Dutch 
Default : No 
Forced : No 

Subtitle #10 
ID : 12 
Format : PGS 
Muxing mode : zlib 
Codec ID : S_HDMV/PGS 
Codec ID/Info : Picture based subtitle format used on BDs/HD-DVDs 
Duration : 2 h 35 min 
Bit rate : 24.5 kb/s 
Count of elements : 3068 
Stream size : 27.1 MiB (1%) 
Language : Portuguese 
Default : No 
Forced : No 

Subtitle #11 
ID : 13 
Format : PGS 
Muxing mode : zlib 
Codec ID : S_HDMV/PGS 
Codec ID/Info : Picture based subtitle format used on BDs/HD-DVDs 
Duration : 2 h 35 min 
Bit rate : 23.9 kb/s 
Count of elements : 3068 
Stream size : 26.6 MiB (1%) 
Language : Italian 
Default : No 
Forced : No 

Menu 
00:00:00.000 : en:Chapter 01 
00:01:32.000 : en:Chapter 02 
00:08:41.000 : en:Chapter 03 
00:17:46.000 : en:Chapter 04 
00:24:54.500 : en:Chapter 05 
00:28:38.000 : en:Chapter 06 
00:33:27.500 : en:Chapter 07 
00:39:18.500 : en:Chapter 08 
00:46:10.500 : en:Chapter 09 
00:51:50.500 : en:Chapter 10 
00:59:09.000 : en:Chapter 11 
01:06:13.000 : en:Chapter 12 
01:13:37.000 : en:Chapter 13 
01:21:20.000 : en:Chapter 14 
01:30:22.000 : en:Chapter 15 
01:37:11.500 : en:Chapter 16 
01:46:10.500 : en:Chapter 17 
01:50:50.500 : en:Chapter 18 
01:59:53.500 : en:Chapter 19 
02:09:24.500 : en:Chapter 20 
02:17:12.000 : en:Chapter 21 
02:27:13.000 : en:Chapter 22 
02:33:20.000 : en:Chapter 23 
02:37:13.500 : en:Chapter 24

Screencaps

Download

File: Tiger Zinda Hai (2017) (1080p BluRay x265 Natty).mkv (4.6 GB)

Movie: Google Drive

2 thoughts on “Tiger Zinda Hai (2017) (1080p BluRay x265 HEVC 10bit AAC 7.1 Hindi Natty)

Leave a Reply