The Twilight Saga Pentalogy (2008-2011) (BluRay 1080p AAC 5.1 x265 HEVC Qman)

Twilight (2008)

Mediainfo

General
Unique ID                                : 245772553914063222452045817325435114937 (0xB8E61275BEFCD5F685A408D3296E55B9)
Complete name                            : 01.Twilight.2008.BluRay.1080p.5.1.x265.HEVC-Qman[UTR].Perfecto.mkv
Format                                   : Matroska
Format version                           : Version 4 / Version 2
File size                                : 2.71 GiB
Duration                                 : 2 h 1 min
Overall bit rate                         : 3 187 kb/s
Encoded date                             : UTC 2015-03-08 05:49:30
Writing application                      : mkvmerge v7.7.0 ('Six Voices') 64bit built on Feb 28 2015 23:39:33
Writing library                          : libebml v1.3.1 + libmatroska v1.4.2 / Lavf55.12.0

Video
ID                                       : 1
Format                                   : HEVC
Format/Info                              : High Efficiency Video Coding
Format profile                           : [email protected]@Main
Codec ID                                 : V_MPEGH/ISO/HEVC
Duration                                 : 2 h 1 min
Bit rate                                 : 2 929 kb/s
Width                                    : 1 920 pixels
Height                                   : 800 pixels
Display aspect ratio                     : 2.40:1
Frame rate mode                          : Constant
Frame rate                               : 23.976 (24000/1001) FPS
Color space                              : YUV
Chroma subsampling                       : 4:2:0
Bit depth                                : 8 bits
Bits/(Pixel*Frame)                       : 0.080
Stream size                              : 2.49 GiB (92%)
Writing library                          : x265 1.4:[Windows][GCC 4.9.0][64 bit]
Encoding settings                        : wpp / ctu=64 / tu-intra-depth=1 / tu-inter-depth=1 / me=1 / subme=2 / merange=57 / no-rect / no-amp / max-merge=2 / temporal-mvp / no-early-skip / no-fast-cbf / rdpenalty=0 / no-tskip / no-tskip-fast / strong-intra-smoothing / no-lossless / no-cu-lossless / no-constrained-intra / no-fast-intra / open-gop / interlace=0 / keyint=240 / min-keyint=24 / scenecut=40 / rc-lookahead=20 / bframes=4 / bframe-bias=0 / b-adapt=2 / ref=3 / weightp / no-weightb / aq-mode=2 / aq-strength=1.00 / cbqpoffs=0 / crqpoffs=0 / rd=3 / psy-rd=0.00 / psy-rdoq=0.00 / signhide / lft / sao / no-sao-non-deblock / b-pyramid / cutree / rc=crf / crf=22.0 / qcomp=0.60 / qpmin=0 / qpmax=51 / qpstep=4 / ipratio=1.40 / pbratio=1.30
Language                                 : English
Default                                  : Yes
Forced                                   : No
Color range                              : Limited
Color primaries                          : BT.709
Transfer characteristics                 : BT.709
Matrix coefficients                      : BT.709

Audio
ID                                       : 2
Format                                   : AAC
Format/Info                              : Advanced Audio Codec
Format profile                           : HE-AACv2 / HE-AAC / LC
Codec ID                                 : A_AAC
Duration                                 : 2 h 1 min
Bit rate                                 : 256 kb/s
Channel(s)                               : 2 channels / 6 channels / 6 channels
Channel positions                        : Front: L R / Front: L C R, Side: L R, LFE / Front: L C R, Side: L R, LFE
Sampling rate                            : 48.0 kHz / 48.0 kHz / 24.0 kHz
Frame rate                               : 23.438 FPS (1024 spf)
Compression mode                         : Lossy
Delay relative to video                  : -105 ms
Stream size                              : 223 MiB (8%)
Title                                    : Surround
Language                                 : English
Default                                  : Yes
Forced                                   : No

Menu
00:00:00.000                             : :Chapter 1
00:05:40.737                             : :Chapter 2
00:12:03.119                             : :Chapter 3
00:20:48.853                             : :Chapter 4
00:24:51.846                             : :Chapter 5
00:29:46.098                             : :Chapter 6
00:36:07.104                             : :Chapter 7
00:41:36.516                             : :Chapter 8
00:47:24.322                             : :Chapter 9
00:51:23.185                             : :Chapter 10
00:58:00.749                             : :Chapter 11
01:07:11.967                             : :Chapter 12
01:11:48.409                             : :Chapter 13
01:17:10.398                             : :Chapter 14
01:21:44.171                             : :Chapter 15
01:31:12.447                             : :Chapter 16
01:35:38.964                             : :Chapter 17
01:42:31.042                             : :Chapter 18
01:46:05.339                             : :Chapter 19
01:49:56.403                             : :Chapter 20

Download

File: 01.Twilight.2008.BluRay.1080p.5.1.x265.HEVC-Qman[UTR].Perfecto.mkv (2.71 GB)

Download: Google Drive

Twilight: New Moon (2009)

Mediainfo

General
Unique ID                                : 197563049291574684839939958082939942343 (0x94A1425E7020BF7F89DDE48CD7A075C7)
Complete name                            : 02.Twilight.New.Moon.2009.BluRay.1080p.5.1.x265.HEVC-Qman[UTR].Perfecto.mkv
Format                                   : Matroska
Format version                           : Version 4 / Version 2
File size                                : 3.08 GiB
Duration                                 : 2 h 10 min
Overall bit rate                         : 3 371 kb/s
Encoded date                             : UTC 2015-03-15 00:10:05
Writing application                      : mkvmerge v7.7.0 ('Six Voices') 32bit built on Feb 28 2015 23:23:00
Writing library                          : libebml v1.3.1 + libmatroska v1.4.2

Video
ID                                       : 1
Format                                   : HEVC
Format/Info                              : High Efficiency Video Coding
Codec ID                                 : V_MPEGH/ISO/HEVC
Duration                                 : 2 h 10 min
Bit rate                                 : 3 111 kb/s
Width                                    : 1 920 pixels
Height                                   : 800 pixels
Display aspect ratio                     : 2.40:1
Frame rate mode                          : Constant
Frame rate                               : 23.976 (23976/1000) FPS
Bits/(Pixel*Frame)                       : 0.084
Stream size                              : 2.84 GiB (92%)
Language                                 : English
Default                                  : Yes
Forced                                   : No

Audio
ID                                       : 2
Format                                   : AAC
Format/Info                              : Advanced Audio Codec
Format profile                           : LC
Codec ID                                 : A_AAC
Duration                                 : 2 h 10 min
Bit rate                                 : 258 kb/s
Channel(s)                               : 6 channels
Channel positions                        : Front: L C R, Side: L R, LFE
Sampling rate                            : 48.0 kHz
Frame rate                               : 46.875 FPS (1024 spf)
Compression mode                         : Lossy
Delay relative to video                  : 9 ms
Stream size                              : 241 MiB (8%)
Language                                 : English
Default                                  : Yes
Forced                                   : No

Download

File: 02.Twilight.New.Moon.2009.BluRay.1080p.5.1.x265.HEVC-Qman[UTR].Perfecto.mkv (3.08 GB)

Download: Google Drive

The Twilight Saga: Eclipse (2010)

Image result for Twilight: Eclipse poster

Mediainfo

General
Unique ID                                : 217593940963143611580917345556499350286 (0xA3B31193D218792ABC60EBEC9CDD430E)
Complete name                            : 03.Twilight.Eclipse.2010.BluRay.1080p.5.1.x265.HEVC-Qman[UTR].Perfecto.mkv
Format                                   : Matroska
Format version                           : Version 4 / Version 2
File size                                : 2.48 GiB
Duration                                 : 2 h 3 min
Overall bit rate                         : 2 863 kb/s
Encoded date                             : UTC 2015-08-31 18:00:26
Writing application                      : mkvmerge v8.3.0 ('Over the Horizon') 64bit
Writing library                          : libebml v1.3.1 + libmatroska v1.4.2

Video
ID                                       : 1
Format                                   : HEVC
Format/Info                              : High Efficiency Video Coding
Format profile                           : [email protected]@Main
Codec ID                                 : V_MPEGH/ISO/HEVC
Duration                                 : 2 h 3 min
Bit rate                                 : 2 606 kb/s
Width                                    : 1 920 pixels
Height                                   : 800 pixels
Display aspect ratio                     : 2.40:1
Frame rate mode                          : Constant
Frame rate                               : 23.976 (24000/1001) FPS
Color space                              : YUV
Chroma subsampling                       : 4:2:0
Bit depth                                : 8 bits
Bits/(Pixel*Frame)                       : 0.071
Stream size                              : 2.26 GiB (91%)
Writing library                          : x265 1.5:[Windows][GCC 4.9.0][64 bit]
Encoding settings                        : wpp / ctu=64 / tu-intra-depth=1 / tu-inter-depth=1 / me=1 / subme=2 / merange=57 / no-rect / no-amp / max-merge=2 / temporal-mvp / no-early-skip / no-fast-cbf / rdpenalty=0 / no-tskip / no-tskip-fast / strong-intra-smoothing / no-lossless / no-cu-lossless / no-constrained-intra / no-fast-intra / open-gop / interlace=0 / keyint=240 / min-keyint=24 / scenecut=40 / rc-lookahead=20 / bframes=4 / bframe-bias=0 / b-adapt=2 / ref=3 / weightp / no-weightb / aq-mode=1 / aq-strength=1.00 / cbqpoffs=0 / crqpoffs=0 / rd=3 / psy-rd=0.30 / psy-rdoq=0.00 / signhide / lft / sao / no-sao-non-deblock / b-pyramid / cutree / rc=2 / pass / bitrate=2605 / qcomp=0.60 / qpmin=0 / qpmax=51 / qpstep=4 / cplxblur=20.0 / qblur=0.5 / ipratio=1.40 / pbratio=1.30
Language                                 : English
Default                                  : Yes
Forced                                   : No
Color range                              : Limited
Color primaries                          : BT.709
Transfer characteristics                 : BT.709
Matrix coefficients                      : BT.709

Audio
ID                                       : 2
Format                                   : AAC
Format/Info                              : Advanced Audio Codec
Format profile                           : HE-AAC / LC
Codec ID                                 : A_AAC
Duration                                 : 2 h 3 min
Bit rate                                 : 256 kb/s
Channel(s)                               : 6 channels
Channel positions                        : Front: L C R, Side: L R, LFE
Sampling rate                            : 48.0 kHz / 24.0 kHz
Frame rate                               : 23.438 FPS (1024 spf)
Compression mode                         : Lossy
Delay relative to video                  : -105 ms
Stream size                              : 227 MiB (9%)
Language                                 : English
Default                                  : Yes
Forced                                   : No

Menu
00:00:00.000                             : :00:00:00.000
00:08:52.657                             : :00:08:47.694
00:17:47.608                             : :00:17:37.515
00:25:17.599                             : :00:25:17.516
00:30:29.411                             : :00:30:20.402
00:36:48.164                             : :00:36:45.078
00:43:33.903                             : :00:43:31.776
00:50:22.728                             : :00:50:13.761
00:55:37.459                             : :00:55:34.373
01:00:21.701                             : :01:00:11.608
01:06:22.353                             : :01:06:12.218
01:13:15.307                             : :01:13:05.214
01:19:47.032                             : :01:19:43.362
01:25:21.950                             : :01:25:15.819
01:31:34.864                             : :01:31:27.232
01:35:55.249                             : :01:35:54.958
01:43:23.363                             : :01:43:19.985
01:51:53.581                             : :01:51:53.498

Download

File: 03.Twilight.Eclipse.2010.BluRay.1080p.5.1.x265.HEVC-Qman[UTR].Perfecto.mkv (2.48 GB)

Download: Google Drive

Twilight: Breaking Dawn - Part 1 (2011)

Image result for Twilight: Breaking Dawn Pt. 1 poster

Mediainfo

General
Unique ID                                : 220355652513519936093658179219973801994 (0xA5C6F47832B7887D99265E448469080A)
Complete name                            : 04.Twilight.Breaking.Dawn.Pt.1.2011.BluRay.1080p.5.1.x265.HEVC-Qman[UTR].Perfecto.mkv
Format                                   : Matroska
Format version                           : Version 4 / Version 2
File size                                : 2.44 GiB
Duration                                 : 1 h 57 min
Overall bit rate                         : 2 984 kb/s
Encoded date                             : UTC 2015-08-31 18:02:35
Writing application                      : mkvmerge v8.3.0 ('Over the Horizon') 64bit
Writing library                          : libebml v1.3.1 + libmatroska v1.4.2

Video
ID                                       : 1
Format                                   : HEVC
Format/Info                              : High Efficiency Video Coding
Format profile                           : [email protected]@Main
Codec ID                                 : V_MPEGH/ISO/HEVC
Duration                                 : 1 h 57 min
Bit rate                                 : 2 726 kb/s
Width                                    : 1 920 pixels
Height                                   : 800 pixels
Display aspect ratio                     : 2.40:1
Frame rate mode                          : Constant
Frame rate                               : 23.976 (24000/1001) FPS
Color space                              : YUV
Chroma subsampling                       : 4:2:0
Bit depth                                : 8 bits
Bits/(Pixel*Frame)                       : 0.074
Stream size                              : 2.23 GiB (91%)
Writing library                          : x265 1.5:[Windows][GCC 4.9.0][64 bit]
Encoding settings                        : wpp / ctu=64 / tu-intra-depth=1 / tu-inter-depth=1 / me=1 / subme=2 / merange=57 / no-rect / no-amp / max-merge=2 / temporal-mvp / no-early-skip / no-fast-cbf / rdpenalty=0 / no-tskip / no-tskip-fast / strong-intra-smoothing / no-lossless / no-cu-lossless / no-constrained-intra / no-fast-intra / open-gop / interlace=0 / keyint=240 / min-keyint=24 / scenecut=40 / rc-lookahead=20 / bframes=4 / bframe-bias=0 / b-adapt=2 / ref=3 / weightp / no-weightb / aq-mode=1 / aq-strength=1.00 / cbqpoffs=0 / crqpoffs=0 / rd=3 / psy-rd=0.30 / psy-rdoq=0.00 / signhide / lft / sao / no-sao-non-deblock / b-pyramid / cutree / rc=2 / pass / bitrate=2725 / qcomp=0.60 / qpmin=0 / qpmax=51 / qpstep=4 / cplxblur=20.0 / qblur=0.5 / ipratio=1.40 / pbratio=1.30
Language                                 : English
Default                                  : Yes
Forced                                   : No
Color range                              : Limited
Color primaries                          : BT.709
Transfer characteristics                 : BT.709
Matrix coefficients                      : BT.709

Audio
ID                                       : 2
Format                                   : AAC
Format/Info                              : Advanced Audio Codec
Format profile                           : HE-AAC / LC
Codec ID                                 : A_AAC
Duration                                 : 1 h 57 min
Bit rate                                 : 256 kb/s
Channel(s)                               : 6 channels
Channel positions                        : Front: L C R, Side: L R, LFE
Sampling rate                            : 48.0 kHz / 24.0 kHz
Frame rate                               : 23.438 FPS (1024 spf)
Compression mode                         : Lossy
Delay relative to video                  : -105 ms
Stream size                              : 214 MiB (9%)
Language                                 : English
Default                                  : Yes
Forced                                   : No

Menu
00:00:00.000                             : :00:00:00.000
00:08:12.575                             : :00:08:10.115
00:11:30.856                             : :00:11:23.683
00:16:33.617                             : :00:16:30.740
00:21:03.846                             : :00:21:03.762
00:29:38.526                             : :00:29:28.266
00:34:53.383                             : :00:34:43.290
00:41:15.639                             : :00:41:15.556
00:47:44.570                             : :00:47:42.485
00:56:07.906                             : :00:55:57.813
01:04:24.318                             : :01:04:21.441
01:09:49.185                             : :01:09:47.058
01:13:47.464                             : :01:13:47.381
01:20:53.140                             : :01:20:50.804
01:28:23.047                             : :01:28:22.964
01:36:35.664                             : :01:36:25.488
01:41:53.816                             : :01:41:44.098
01:46:55.200                             : :01:46:51.697

Download

File: 04.Twilight.Breaking.Dawn.Pt.1.2011.BluRay.1080p.5.1.x265.HEVC-Qman[UTR].Perfecto.mkv (2.44 GB)

Download: Google Drive

Twilight: Breaking Dawn - Part 2 (2012)

Image result for Twilight: Breaking Dawn Pt. 1 poster

Mediainfo

General
Unique ID                                : 217706513765801563848411950293943689252 (0xA3C8BFD8594BE3AD8D63F9F375C1A024)
Complete name                            : 05.Twilight.Breaking.Dawn.Pt.2.2011.BluRay.1080p.5.1.x265.HEVC-Qman[UTR].Perfecto.mkv
Format                                   : Matroska
Format version                           : Version 4 / Version 2
File size                                : 2.43 GiB
Duration                                 : 1 h 55 min
Overall bit rate                         : 3 022 kb/s
Encoded date                             : UTC 2015-03-25 03:47:42
Writing application                      : mkvmerge v7.7.0 ('Six Voices') 32bit built on Feb 28 2015 23:23:00
Writing library                          : libebml v1.3.1 + libmatroska v1.4.2

Video
ID                                       : 1
Format                                   : HEVC
Format/Info                              : High Efficiency Video Coding
Codec ID                                 : V_MPEGH/ISO/HEVC
Duration                                 : 1 h 55 min
Bit rate                                 : 2 758 kb/s
Width                                    : 1 920 pixels
Height                                   : 800 pixels
Display aspect ratio                     : 2.40:1
Frame rate mode                          : Constant
Frame rate                               : 24.000 FPS
Bits/(Pixel*Frame)                       : 0.075
Stream size                              : 2.22 GiB (91%)
Language                                 : English
Default                                  : Yes
Forced                                   : No

Audio
ID                                       : 2
Format                                   : AAC
Format/Info                              : Advanced Audio Codec
Format profile                           : LC
Codec ID                                 : A_AAC
Duration                                 : 1 h 55 min
Bit rate                                 : 265 kb/s
Channel(s)                               : 6 channels
Channel positions                        : Front: L C R, Side: L R, LFE
Sampling rate                            : 48.0 kHz
Frame rate                               : 46.875 FPS (1024 spf)
Compression mode                         : Lossy
Delay relative to video                  : 9 ms
Stream size                              : 216 MiB (9%)
Language                                 : English
Default                                  : Yes
Forced                                   : No

Menu
00:00:00.000                             : en:00:00:00.000
00:08:04.067                             : en:00:08:04.067
00:13:35.398                             : en:00:13:35.398
00:18:36.073                             : en:00:18:36.073
00:22:11.080                             : en:00:22:11.080
00:30:03.343                             : en:00:30:03.343
00:38:06.159                             : en:00:38:06.159
00:44:23.619                             : en:00:44:23.619
00:48:35.830                             : en:00:48:35.830
00:52:31.440                             : en:00:52:31.440
00:58:11.947                             : en:00:58:11.947
01:02:10.352                             : en:01:02:10.352
01:08:26.060                             : en:01:08:26.060
01:11:38.503                             : en:01:11:38.503
01:20:35.456                             : en:01:20:35.456
01:24:57.509                             : en:01:24:57.509
01:32:17.157                             : en:01:32:17.157
01:38:08.966                             : en:01:38:08.966

Download

File: 05.Twilight.Breaking.Dawn.Pt.2.2011.BluRay.1080p.5.1.x265.HEVC-Qman[UTR].Perfecto.mkv (2.43 GB)

Download: Google Drive

6 thoughts on “The Twilight Saga Pentalogy (2008-2011) (BluRay 1080p AAC 5.1 x265 HEVC Qman)

  1. Dear Admin,

    Do you mind to fix all of these links..?

    Also thank you for reading all of our comments and fixed the dead links.

    Keep up the good work. 🙂

  2. Links are dead and also
    the Twilight saga new moon’s video isn’t encoded properly it is showing the multiple colours in place of the movie.

  3. gdrive says that the file has been downloaded too many times. i checked many times but its unavailable. can you please check on that? and if there are any other links would you please let me know? BTW big fan of your work bro. amazing quality from amazing source. thanks in advance bro.

    1. sorry bro. you have uploaded the fix on the menu of the page but stupid me, i couldn’t see it. sorry to disturb you. got the fix. thanks.

Leave a Reply