The Drawn Together Movie The Movie! (2010) (1080p x265 HEVC 10bit AAC 5.1 Panda)

Info

Image result for The Drawn Together Movie The Movie!

Plot: Eight housemates on a fake animated reality TV show realize they’ve been canceled and set off on a journey to get back on the air.

Encode

Source:

Release: 
The.Drawn.Together.Movie.The.Movie.1080p.Bluray.DD5.1.H.264-1337chill

Mediainfo

General 
Format : Matroska 
Format version : Version 4 / Version 2 
File size : 2.10 GiB 
Duration : 1 h 11 min 
Overall bit rate : 4 229 kb/s 
Movie name : The Drawn Together Movie: The Movie! 
Encoded date : UTC 2018-12-21 05:35:50 
Writing application : mkvmerge v20.0.0 ('I Am The Sun') 64-bit 
Writing library : libebml v1.3.5 + libmatroska v1.4.8 
Writing frontend : StaxRip v1.7.0.6 

Video 
ID : 1 
Format : HEVC 
Format/Info : High Efficiency Video Coding 
Format profile : Main [email protected]@Main 
Codec ID : V_MPEGH/ISO/HEVC 
Duration : 1 h 11 min 
Bit rate : 3 696 kb/s 
Width : 1 920 pixels 
Height : 1 080 pixels 
Display aspect ratio : 16:9 
Frame rate mode : Constant 
Frame rate : 23.976 (24000/1001) FPS 
Color space : YUV 
Chroma subsampling : 4:2:0 
Bit depth : 10 bits 
Bits/(Pixel*Frame) : 0.074 
Stream size : 1.84 GiB (87%) 
Writing library : x265 2.8+12-9cde2c278464:[Windows][MSVC 1900][64 bit] 10bit 
Encoding settings : cpuid=1111039 / frame-threads=3 / numa-pools=8 / wpp / no-pmode / no-pme / no-psnr / no-ssim / log-level=2 / input-csp=1 / input-res=1920x1080 / interlace=0 / total-frames=102478 / level-idc=0 / high-tier=1 / uhd-bd=0 / ref=4 / no-allow-non-conformance / no-repeat-headers / annexb / no-aud / no-hrd / info / hash=0 / no-temporal-layers / open-gop / min-keyint=23 / keyint=250 / gop-lookahead=0 / bframes=8 / b-adapt=2 / b-pyramid / bframe-bias=0 / rc-lookahead=80 / lookahead-slices=0 / scenecut=40 / radl=0 / no-intra-refresh / ctu=64 / min-cu-size=8 / no-rect / no-amp / max-tu-size=32 / tu-inter-depth=1 / tu-intra-depth=1 / limit-tu=0 / rdoq-level=2 / dynamic-rd=0.00 / no-ssim-rd / signhide / no-tskip / nr-intra=0 / nr-inter=0 / no-constrained-intra / no-strong-intra-smoothing / max-merge=3 / limit-refs=3 / limit-modes / me=3 / subme=5 / merange=57 / temporal-mvp / weightp / no-weightb / no-analyze-src-pics / deblock=-3:-3 / no-sao / no-sao-non-deblock / rd=4 / no-early-skip / rskip / no-fast-intra / no-tskip-fast / no-cu-lossless / no-b-intra / no-splitrd-skip / rdpenalty=0 / psy-rd=2.00 / psy-rdoq=1.70 / no-rd-refine / no-lossless / cbqpoffs=0 / crqpoffs=0 / rc=abr / bitrate=3700 / qcomp=0.60 / qpstep=4 / stats-write=0 / stats-read=2 / cplxblur=20.0 / qblur=0.5 / ipratio=1.40 / pbratio=1.30 / aq-mode=3 / aq-strength=0.80 / cutree / zone-count=0 / no-strict-cbr / qg-size=32 / no-rc-grain / qpmax=69 / qpmin=0 / no-const-vbv / sar=0 / overscan=0 / videoformat=5 / range=0 / colorprim=2 / transfer=2 / colormatrix=2 / chromaloc=0 / display-window=0 / max-cll=0,0 / min-luma=0 / max-luma=1023 / log2-max-poc-lsb=8 / vui-timing-info / vui-hrd-info / slices=1 / no-opt-qp-pps / no-opt-ref-list-length-pps / no-multi-pass-opt-rps / scenecut-bias=0.05 / no-opt-cu-delta-qp / no-aq-motion / no-hdr / no-hdr-opt / no-dhdr10-opt / no-idr-recovery-sei / analysis-reuse-level=5 / scale-factor=0 / refine-intra=0 / refine-inter=0 / refine-mv=0 / no-limit-sao / ctu-info=0 / no-lowpass-dct / refine-mv-type=0 / copy-pic=1 / max-ausize-factor=1.0 / no-dynamic-refine / no-single-sei 
Default : Yes 
Forced : No 

Audio #1 
ID : 2 
Format : AAC 
Format/Info : Advanced Audio Codec 
Format profile : LC 
Codec ID : A_AAC 
Duration : 1 h 11 min 
Bit rate : 408 kb/s 
Channel(s) : 6 channels 
Channel positions : Front: L C R, Side: L R, LFE 
Sampling rate : 48.0 kHz 
Frame rate : 46.875 FPS (1024 spf) 
Compression mode : Lossy 
Delay relative to video : 20 ms 
Stream size : 208 MiB (10%) 
Language : English 
Default : Yes 
Forced : No 

Audio #2 
ID : 3 
Format : AAC 
Format/Info : Advanced Audio Codec 
Format profile : LC 
Codec ID : A_AAC 
Duration : 1 h 11 min 
Bit rate : 105 kb/s 
Channel(s) : 2 channels 
Channel positions : Front: L R 
Sampling rate : 48.0 kHz 
Frame rate : 46.875 FPS (1024 spf) 
Compression mode : Lossy 
Delay relative to video : 9 ms 
Stream size : 53.3 MiB (2%) 
Language : English 
Default : No 
Forced : No 

Subtitle 
ID : 4 
Format : PGS 
Muxing mode : zlib 
Codec ID : S_HDMV/PGS 
Codec ID/Info : Picture based subtitle format used on BDs/HD-DVDs 
Duration : 1 h 11 min 
Bit rate : 58.3 kb/s 
Count of elements : 2699 
Stream size : 29.7 MiB (1%) 
Language : English 
Default : No 
Forced : No 

Menu 
00:00:00.000 : en:Chapter 01 
00:03:52.982 : en:Chapter 02 
00:04:38.152 : en:Chapter 03 
00:08:34.305 : en:Chapter 04 
00:10:44.101 : en:Chapter 05 
00:12:43.679 : en:Chapter 06 
00:15:19.835 : en:Chapter 07 
00:17:58.577 : en:Chapter 08 
00:26:23.164 : en:Chapter 09 
00:29:36.441 : en:Chapter 10 
00:31:24.549 : en:Chapter 11 
00:33:03.481 : en:Chapter 12 
00:34:21.642 : en:Chapter 13 
00:36:14.297 : en:Chapter 14 
00:37:43.928 : en:Chapter 15 
00:41:10.968 : en:Chapter 16 
00:47:37.855 : en:Chapter 17 
00:49:40.978 : en:Chapter 18 
00:50:41.413 : en:Chapter 19 
00:53:10.604 : en:Chapter 20 
00:58:14.991 : en:Chapter 21 
01:05:40.645 : en:Chapter 22 
01:07:21.078 : en:Chapter 23 
01:09:15.734 : en:Chapter 24

Download

File: The Drawn Together Movie The Movie! (2010) (1080p x265 Panda).mkv (2.1 GB)

Movie: Google Drive

Featurettes: Google Drive

Leave a Reply