The Bourne Supremacy (2004) (2160p BluRay x265 HEVC 10bit HDR AAC 7.1 FreetheFish)

Info

Plot: When Jason Bourne is framed for a CIA operation gone awry, he is forced to resume his former life as a trained assassin to survive.

IMDb: 7.8/10

Encode

Source:

Release:
The.Bourne.Supremacy.2004.2160p.UHD.BluRay.REMUX.HDR.HEVC.DTS-X-EPSiLON.mkv (53.68 GBs)

Mediainfo

General
Format : Matroska
Format version : Version 4 / Version 2
File size : 15.6 GiB
Duration : 1 h 48 min
Overall bit rate : 20.5 Mb/s
Encoded date : UTC 2018-06-10 12:47:43
Writing application : mkvmerge v23.0.0 ('The Bride Said No') 64-bit
Writing library : libebml v1.3.6 + libmatroska v1.4.9

Video
ID : 1
Format : HEVC
Format/Info : High Efficiency Video Coding
Format profile : Main [email protected]@Main
Codec ID : V_MPEGH/ISO/HEVC
Duration : 1 h 48 min
Bit rate : 19.4 Mb/s
Width : 3 840 pixels
Height : 1 632 pixels
Display aspect ratio : 2.35:1
Frame rate mode : Constant
Frame rate : 23.976 (24000/1001) FPS
Color space : YUV
Chroma subsampling : 4:2:0
Bit depth : 10 bits
Bits/(Pixel*Frame) : 0.129
Stream size : 14.7 GiB (94%)
Writing library : x265 2.8+12-9cde2c278464:[Windows][MSVC 1914][64 bit] 10bit
Encoding settings : cpuid=1111039 / frame-threads=5 / numa-pools=32,0 / wpp / no-pmode / no-pme / no-psnr / no-ssim / log-level=2 / input-csp=1 / input-res=3840x1632 / interlace=0 / total-frames=155992 / level-idc=0 / high-tier=1 / uhd-bd=0 / ref=5 / no-allow-non-conformance / repeat-headers / annexb / no-aud / no-hrd / info / hash=0 / no-temporal-layers / open-gop / min-keyint=23 / keyint=250 / gop-lookahead=0 / bframes=8 / b-adapt=2 / b-pyramid / bframe-bias=0 / rc-lookahead=90 / lookahead-slices=0 / scenecut=40 / radl=0 / no-intra-refresh / ctu=64 / min-cu-size=8 / no-rect / no-amp / max-tu-size=32 / tu-inter-depth=2 / tu-intra-depth=2 / limit-tu=0 / rdoq-level=2 / dynamic-rd=0.00 / no-ssim-rd / signhide / no-tskip / nr-intra=0 / nr-inter=0 / no-constrained-intra / no-strong-intra-smoothing / max-merge=3 / limit-refs=3 / limit-modes / me=3 / subme=7 / merange=57 / temporal-mvp / weightp / no-weightb / no-analyze-src-pics / deblock=-3:-3 / no-sao / no-sao-non-deblock / rd=5 / no-early-skip / rskip / no-fast-intra / no-tskip-fast / no-cu-lossless / no-b-intra / no-splitrd-skip / rdpenalty=0 / psy-rd=2.00 / psy-rdoq=1.00 / no-rd-refine / no-lossless / cbqpoffs=0 / crqpoffs=0 / rc=crf / crf=17.5 / qcomp=0.60 / qpstep=4 / stats-write=0 / stats-read=0 / ipratio=1.40 / pbratio=1.30 / aq-mode=1 / aq-strength=1.00 / cutree / zone-count=0 / no-strict-cbr / qg-size=32 / no-rc-grain / qpmax=69 / qpmin=0 / no-const-vbv / sar=0 / overscan=0 / videoformat=5 / range=0 / colorprim=9 / transfer=16 / colormatrix=9 / chromaloc=0 / display-window=0 / master-display=G(13250,34500)B(7500,3000)R(34000,16000)WP(15635,16450)L(10000000,50) / max-cll=987,129 / min-luma=0 / max-luma=1023 / log2-max-poc-lsb=8 / vui-timing-info / vui-hrd-info / slices=1 / no-opt-qp-pps / no-opt-ref-list-length-pps / no-multi-pass-opt-rps / scenecut-bias=0.05 / no-opt-cu-delta-qp / aq-motion / hdr / hdr-opt / no-dhdr10-opt / no-idr-recovery-sei / analysis-reuse-level=5 / scale-factor=0 / refine-intra=0 / refine-inter=0 / refine-mv=0 / no-limit-sao / ctu-info=0 / no-lowpass-dct / refine-mv-type=0 / copy-pic=1 / max-ausize-factor=1.0 / no-dynamic-refine / no-single-sei
Language : English
Default : Yes
Forced : No
Color range : Limited
Color primaries : BT.2020
Transfer characteristics : SMPTE ST 2084
Matrix coefficients : BT.2020 non-constant
Mastering display color primaries : R: x=0.680000 y=0.320000, G: x=0.265000 y=0.690000, B: x=0.150000 y=0.060000, White point: x=0.312700 y=0.329000
Mastering display luminance : min: 0.0050 cd/m2, max: 1000.0000 cd/m2
Maximum Content Light Level : 987 cd/m2
Maximum Frame-Average Light Level : 129 cd/m2

Audio #1
ID : 2
Format : AAC
Format/Info : Advanced Audio Codec
Format profile : LC
Codec ID : A_AAC
Duration : 1 h 48 min
Bit rate : 969 kb/s
Channel(s) : 8 channels
Channel positions : Front: L C R, Side: 4, LFE
Sampling rate : 48.0 kHz
Frame rate : 46.875 FPS (1024 spf)
Compression mode : Lossy
Delay relative to video : 20 ms
Stream size : 751 MiB (5%)
Language : English
Default : Yes
Forced : No

Audio #2
ID : 3
Format : AAC
Format/Info : Advanced Audio Codec
Format profile : HE-AAC / LC
Codec ID : A_AAC
Duration : 1 h 48 min
Bit rate : 80.0 kb/s
Channel(s) : 2 channels
Channel positions : Front: L R
Sampling rate : 48.0 kHz / 24.0 kHz
Frame rate : 23.438 FPS (1024 spf)
Compression mode : Lossy
Delay relative to video : 40 ms
Stream size : 62.0 MiB (0%)
Title : Commentary
Language : English
Default : No
Forced : No

Subtitle #1
ID : 4
Format : PGS
Muxing mode : zlib
Codec ID : S_HDMV/PGS
Codec ID/Info : Picture based subtitle format used on BDs/HD-DVDs
Duration : 1 h 40 min
Bit rate : 25.4 kb/s
Count of elements : 1596
Stream size : 18.3 MiB (0%)
Title : SDH
Language : English
Default : No
Forced : No

Subtitle #2
ID : 5
Format : PGS
Muxing mode : zlib
Codec ID : S_HDMV/PGS
Codec ID/Info : Picture based subtitle format used on BDs/HD-DVDs
Duration : 1 h 40 min
Bit rate : 19.2 kb/s
Count of elements : 1480
Stream size : 13.8 MiB (0%)
Language : Czech
Default : No
Forced : No

Subtitle #3
ID : 6
Format : PGS
Muxing mode : zlib
Codec ID : S_HDMV/PGS
Codec ID/Info : Picture based subtitle format used on BDs/HD-DVDs
Duration : 1 h 40 min
Bit rate : 19.7 kb/s
Count of elements : 1480
Stream size : 14.2 MiB (0%)
Language : Danish
Default : No
Forced : No

Subtitle #4
ID : 7
Format : PGS
Muxing mode : zlib
Codec ID : S_HDMV/PGS
Codec ID/Info : Picture based subtitle format used on BDs/HD-DVDs
Duration : 1 h 40 min
Bit rate : 19.4 kb/s
Count of elements : 1474
Stream size : 14.0 MiB (0%)
Language : Dutch
Default : No
Forced : No

Subtitle #5
ID : 8
Format : PGS
Muxing mode : zlib
Codec ID : S_HDMV/PGS
Codec ID/Info : Picture based subtitle format used on BDs/HD-DVDs
Duration : 1 h 40 min
Bit rate : 20.2 kb/s
Count of elements : 1480
Stream size : 14.6 MiB (0%)
Language : Finnish
Default : No
Forced : No

Subtitle #6
ID : 9
Format : PGS
Muxing mode : zlib
Codec ID : S_HDMV/PGS
Codec ID/Info : Picture based subtitle format used on BDs/HD-DVDs
Duration : 1 h 40 min
Bit rate : 21.4 kb/s
Count of elements : 1476
Stream size : 15.4 MiB (0%)
Language : French
Default : No
Forced : No

Subtitle #7
ID : 10
Format : PGS
Muxing mode : zlib
Codec ID : S_HDMV/PGS
Codec ID/Info : Picture based subtitle format used on BDs/HD-DVDs
Duration : 1 h 47 min
Bit rate : 18.4 kb/s
Count of elements : 1480
Stream size : 14.2 MiB (0%)
Language : Greek
Default : No
Forced : No

Subtitle #8
ID : 11
Format : PGS
Muxing mode : zlib
Codec ID : S_HDMV/PGS
Codec ID/Info : Picture based subtitle format used on BDs/HD-DVDs
Duration : 1 h 40 min
Bit rate : 19.4 kb/s
Count of elements : 1474
Stream size : 14.0 MiB (0%)
Language : Norwegian
Default : No
Forced : No

Subtitle #9
ID : 12
Format : PGS
Muxing mode : zlib
Codec ID : S_HDMV/PGS
Codec ID/Info : Picture based subtitle format used on BDs/HD-DVDs
Duration : 1 h 40 min
Bit rate : 20.0 kb/s
Count of elements : 1476
Stream size : 14.4 MiB (0%)
Language : Polish
Default : No
Forced : No

Subtitle #10
ID : 13
Format : PGS
Muxing mode : zlib
Codec ID : S_HDMV/PGS
Codec ID/Info : Picture based subtitle format used on BDs/HD-DVDs
Duration : 1 h 40 min
Bit rate : 18.9 kb/s
Count of elements : 1478
Stream size : 13.6 MiB (0%)
Language : Swedish
Default : No
Forced : No

Subtitle #11
ID : 14
Format : PGS
Muxing mode : zlib
Codec ID : S_HDMV/PGS
Codec ID/Info : Picture based subtitle format used on BDs/HD-DVDs
Duration : 1 h 40 min
Bit rate : 19.2 kb/s
Count of elements : 1494
Stream size : 13.8 MiB (0%)
Language : Thai
Default : No
Forced : No

Subtitle #12
ID : 15
Format : PGS
Muxing mode : zlib
Codec ID : S_HDMV/PGS
Codec ID/Info : Picture based subtitle format used on BDs/HD-DVDs
Duration : 1 h 42 min
Bit rate : 44.2 kb/s
Count of elements : 2579
Stream size : 32.5 MiB (0%)
Title : Commentary by Director Paul Greengrass
Language : English
Default : No
Forced : No

Subtitle #13
ID : 16
Format : PGS
Muxing mode : zlib
Codec ID : S_HDMV/PGS
Codec ID/Info : Picture based subtitle format used on BDs/HD-DVDs
Duration : 1 h 42 min
Bit rate : 42.5 kb/s
Count of elements : 2627
Stream size : 31.2 MiB (0%)
Title : Commentary by Director Paul Greengrass
Language : French
Default : No
Forced : No

Menu
00:00:00.000 : en:Bits and Pieces
00:04:31.771 : en:The Neski Files
00:09:45.794 : en:Blown
00:15:24.340 : en:No Choice
00:22:02.821 : en:One of Us
00:23:35.623 : en:Operation Treadstone
00:29:14.044 : en:Priority Target
00:35:14.321 : en:The Local Contact
00:38:06.242 : en:The Last Two
00:44:58.738 : en:Looking for Landy
00:48:01.295 : en:In the Crosshairs
00:52:52.419 : en:The Alexanderplatz
00:55:27.032 : en:Some Simple Questions
01:01:02.784 : en:What if...
01:02:40.298 : en:Room 645
01:06:52.550 : en:On the Run
01:13:54.138 : en:The Patriot
01:18:13.856 : en:To Moscow
01:24:53.046 : en:Kirill's Prey
01:27:43.383 : en:Death Chase
01:33:06.873 : en:Into the Light
01:34:51.561 : en:The Truth
01:40:15.343 : en:The File on David Webb
01:42:01.032 : en:End Titles

Download

File: The Bourne Supremacy (2004) (2160p BluRay x265 10bit HDR FreetheFish).mkv (15.6 GB)

Movie: Google Drive

Featurettes: Google Drive

Leave a Reply