The Bourne Legacy (2012) (2160p BluRay x265 HEVC 10bit HDR AAC 7.1 FreetheFish)

Info

Plot: An expansion of the universe from Robert Ludlum’s novels, centered on a new hero whose stakes have been triggered by the events of the previous three films.

IMDb: 6.7/10

Encode

Source:

Release:
The.Bourne.Legacy.2012.2160p.UHD.BluRay.REMUX.HDR.HEVC.DTS-X-EPSiLON.mkv (51.88 GBs)

Mediainfo

General
Format : Matroska
Format version : Version 4 / Version 2
File size : 10.9 GiB
Duration : 2 h 14 min
Overall bit rate : 11.6 Mb/s
Encoded date : UTC 2018-06-18 21:41:40
Writing application : mkvmerge v23.0.0 ('The Bride Said No') 64-bit
Writing library : libebml v1.3.6 + libmatroska v1.4.9

Video
ID : 1
Format : HEVC
Format/Info : High Efficiency Video Coding
Format profile : MainĀ [email protected]@Main
Codec ID : V_MPEGH/ISO/HEVC
Duration : 2 h 14 min
Bit rate : 10.5 Mb/s
Width : 3 840 pixels
Height : 1 600 pixels
Display aspect ratio : 2.40:1
Frame rate mode : Constant
Frame rate : 23.976 (24000/1001) FPS
Color space : YUV
Chroma subsampling : 4:2:0
Bit depth : 10 bits
Bits/(Pixel*Frame) : 0.071
Stream size : 9.87 GiB (91%)
Writing library : x265 2.8+12-9cde2c278464:[Windows][MSVC 1914][64 bit] 10bit
Encoding settings : cpuid=1111039 / frame-threads=5 / numa-pools=32,0 / wpp / no-pmode / no-pme / no-psnr / no-ssim / log-level=2 / input-csp=1 / input-res=3840x1600 / interlace=0 / total-frames=194125 / level-idc=0 / high-tier=1 / uhd-bd=0 / ref=5 / no-allow-non-conformance / repeat-headers / annexb / no-aud / no-hrd / info / hash=0 / no-temporal-layers / open-gop / min-keyint=23 / keyint=250 / gop-lookahead=0 / bframes=8 / b-adapt=2 / b-pyramid / bframe-bias=0 / rc-lookahead=90 / lookahead-slices=0 / scenecut=40 / radl=0 / no-intra-refresh / ctu=64 / min-cu-size=8 / no-rect / no-amp / max-tu-size=32 / tu-inter-depth=2 / tu-intra-depth=2 / limit-tu=0 / rdoq-level=2 / dynamic-rd=0.00 / no-ssim-rd / signhide / no-tskip / nr-intra=0 / nr-inter=0 / no-constrained-intra / no-strong-intra-smoothing / max-merge=3 / limit-refs=3 / limit-modes / me=3 / subme=7 / merange=57 / temporal-mvp / weightp / no-weightb / no-analyze-src-pics / deblock=-3:-3 / sao / no-sao-non-deblock / rd=5 / no-early-skip / rskip / no-fast-intra / no-tskip-fast / no-cu-lossless / no-b-intra / no-splitrd-skip / rdpenalty=0 / psy-rd=1.65 / psy-rdoq=1.00 / no-rd-refine / no-lossless / cbqpoffs=0 / crqpoffs=0 / rc=crf / crf=18.0 / qcomp=0.60 / qpstep=4 / stats-write=0 / stats-read=0 / ipratio=1.40 / pbratio=1.30 / aq-mode=3 / aq-strength=0.80 / cutree / zone-count=0 / no-strict-cbr / qg-size=32 / no-rc-grain / qpmax=69 / qpmin=0 / no-const-vbv / sar=0 / overscan=0 / videoformat=5 / range=0 / colorprim=9 / transfer=16 / colormatrix=9 / chromaloc=0 / display-window=0 / master-display=G(13250,34500)B(7500,3000)R(34000,16000)WP(15635,16450)L(10000000,0) / max-cll=0,0 / min-luma=0 / max-luma=1023 / log2-max-poc-lsb=8 / vui-timing-info / vui-hrd-info / slices=1 / no-opt-qp-pps / no-opt-ref-list-length-pps / no-multi-pass-opt-rps / scenecut-bias=0.05 / no-opt-cu-delta-qp / aq-motion / hdr / hdr-opt / no-dhdr10-opt / no-idr-recovery-sei / analysis-reuse-level=5 / scale-factor=0 / refine-intra=0 / refine-inter=0 / refine-mv=0 / no-limit-sao / ctu-info=0 / no-lowpass-dct / refine-mv-type=0 / copy-pic=1 / max-ausize-factor=1.0 / no-dynamic-refine / no-single-sei
Language : English
Default : Yes
Forced : No
Color range : Limited
Color primaries : BT.2020
Transfer characteristics : SMPTE ST 2084
Matrix coefficients : BT.2020 non-constant
Mastering display color primaries : R: x=0.680000 y=0.320000, G: x=0.265000 y=0.690000, B: x=0.150000 y=0.060000, White point: x=0.312700 y=0.329000
Mastering display luminance : min: 0.0000 cd/m2, max: 1000.0000 cd/m2

Audio #1
ID : 2
Format : AAC
Format/Info : Advanced Audio Codec
Format profile : LC
Codec ID : A_AAC
Duration : 2 h 14 min
Bit rate : 864 kb/s
Channel(s) : 8 channels
Channel positions : Front: L C R, Side: 4, LFE
Sampling rate : 48.0 kHz
Frame rate : 46.875 FPS (1024 spf)
Compression mode : Lossy
Delay relative to video : 20 ms
Stream size : 834 MiB (7%)
Language : English
Default : Yes
Forced : No

Audio #2
ID : 3
Format : AAC
Format/Info : Advanced Audio Codec
Format profile : HE-AAC / LC
Codec ID : A_AAC
Duration : 2 h 14 min
Bit rate : 80.0 kb/s
Channel(s) : 2 channels
Channel positions : Front: L R
Sampling rate : 48.0 kHz / 24.0 kHz
Frame rate : 23.438 FPS (1024 spf)
Compression mode : Lossy
Delay relative to video : 40 ms
Stream size : 77.2 MiB (1%)
Title : Commentary by cast & crew
Language : English
Default : No
Forced : No

Subtitle #1
ID : 4
Format : PGS
Muxing mode : zlib
Codec ID : S_HDMV/PGS
Codec ID/Info : Picture based subtitle format used on BDs/HD-DVDs
Duration : 2 h 2 min
Bit rate : 38.7 kb/s
Count of elements : 3174
Stream size : 34.0 MiB (0%)
Title : SDH
Language : English
Default : No
Forced : No

Subtitle #2
ID : 5
Format : PGS
Muxing mode : zlib
Codec ID : S_HDMV/PGS
Codec ID/Info : Picture based subtitle format used on BDs/HD-DVDs
Duration : 2 h 14 min
Bit rate : 25.2 kb/s
Count of elements : 1884
Stream size : 24.2 MiB (0%)
Language : Czech
Default : No
Forced : No

Subtitle #3
ID : 6
Format : PGS
Muxing mode : zlib
Codec ID : S_HDMV/PGS
Codec ID/Info : Picture based subtitle format used on BDs/HD-DVDs
Duration : 2 h 14 min
Bit rate : 25.9 kb/s
Count of elements : 2012
Stream size : 24.8 MiB (0%)
Language : Danish
Default : No
Forced : No

Subtitle #4
ID : 7
Format : PGS
Muxing mode : zlib
Codec ID : S_HDMV/PGS
Codec ID/Info : Picture based subtitle format used on BDs/HD-DVDs
Duration : 2 h 14 min
Bit rate : 25.7 kb/s
Count of elements : 2246
Stream size : 24.6 MiB (0%)
Language : Dutch
Default : No
Forced : No

Subtitle #5
ID : 8
Format : PGS
Muxing mode : zlib
Codec ID : S_HDMV/PGS
Codec ID/Info : Picture based subtitle format used on BDs/HD-DVDs
Duration : 2 h 14 min
Bit rate : 23.4 kb/s
Count of elements : 2322
Stream size : 22.4 MiB (0%)
Language : Finnish
Default : No
Forced : No

Subtitle #6
ID : 9
Format : PGS
Muxing mode : zlib
Codec ID : S_HDMV/PGS
Codec ID/Info : Picture based subtitle format used on BDs/HD-DVDs
Duration : 2 h 14 min
Bit rate : 25.6 kb/s
Count of elements : 2492
Stream size : 24.6 MiB (0%)
Language : French
Default : No
Forced : No

Subtitle #7
ID : 10
Format : PGS
Muxing mode : zlib
Codec ID : S_HDMV/PGS
Codec ID/Info : Picture based subtitle format used on BDs/HD-DVDs
Duration : 2 h 14 min
Bit rate : 27.2 kb/s
Count of elements : 2152
Stream size : 26.1 MiB (0%)
Language : Greek
Default : No
Forced : No

Subtitle #8
ID : 11
Format : PGS
Muxing mode : zlib
Codec ID : S_HDMV/PGS
Codec ID/Info : Picture based subtitle format used on BDs/HD-DVDs
Duration : 2 h 14 min
Bit rate : 22.9 kb/s
Count of elements : 2392
Stream size : 21.9 MiB (0%)
Language : Norwegian
Default : No
Forced : No

Subtitle #9
ID : 12
Format : PGS
Muxing mode : zlib
Codec ID : S_HDMV/PGS
Codec ID/Info : Picture based subtitle format used on BDs/HD-DVDs
Duration : 2 h 14 min
Bit rate : 25.2 kb/s
Count of elements : 2776
Stream size : 24.1 MiB (0%)
Language : Polish
Default : No
Forced : No

Subtitle #10
ID : 13
Format : PGS
Muxing mode : zlib
Codec ID : S_HDMV/PGS
Codec ID/Info : Picture based subtitle format used on BDs/HD-DVDs
Duration : 2 h 14 min
Bit rate : 26.3 kb/s
Count of elements : 2060
Stream size : 25.2 MiB (0%)
Language : Swedish
Default : No
Forced : No

Subtitle #11
ID : 14
Format : PGS
Muxing mode : zlib
Codec ID : S_HDMV/PGS
Codec ID/Info : Picture based subtitle format used on BDs/HD-DVDs
Duration : 2 h 14 min
Bit rate : 23.4 kb/s
Count of elements : 2906
Stream size : 22.4 MiB (0%)
Language : Thai
Default : No
Forced : No

Subtitle #12
ID : 15
Format : PGS
Muxing mode : zlib
Codec ID : S_HDMV/PGS
Codec ID/Info : Picture based subtitle format used on BDs/HD-DVDs
Duration : 2 h 11 min
Bit rate : 85.8 kb/s
Count of elements : 5306
Stream size : 80.5 MiB (1%)
Title : Commentary by cast & crew
Language : English
Default : No
Forced : No

Subtitle #13
ID : 16
Format : PGS
Muxing mode : zlib
Codec ID : S_HDMV/PGS
Codec ID/Info : Picture based subtitle format used on BDs/HD-DVDs
Duration : 2 h 14 min
Bit rate : 70.4 kb/s
Count of elements : 5306
Stream size : 67.7 MiB (1%)
Title : Commentary by cast & crew
Language : French
Default : No
Forced : No

Menu
00:00:00.000 : en:Chapter 1
00:08:44.691 : en:Chapter 2
00:14:27.617 : en:Chapter 3
00:19:58.489 : en:Chapter 4
00:27:54.298 : en:Chapter 5
00:34:19.266 : en:Chapter 6
00:42:53.404 : en:Chapter 7
00:47:58.375 : en:Chapter 8
00:53:57.067 : en:Chapter 9
01:00:30.168 : en:Chapter 10
01:07:37.637 : en:Chapter 11
01:14:37.973 : en:Chapter 12
01:22:40.205 : en:Chapter 13
01:28:38.688 : en:Chapter 14
01:36:40.044 : en:Chapter 15
01:41:06.686 : en:Chapter 16
01:45:08.969 : en:Chapter 17
01:52:16.521 : en:Chapter 18
02:00:08.284 : en:Chapter 19
02:05:07.417 : en:Chapter 20

Download

File: The Bourne Legacy (2012) (2160p BluRay x265 10bit HDR FreetheFish).mkv (10.9 GB)

Movie: Google Drive

Featurettes: Google Drive

Leave a Reply