The Bourne Identity (2002) (2160p BluRay x265 HEVC 10bit HDR AAC 7.1 FreetheFish)

Info

Plot: A man is picked up by a fishing boat, bullet-riddled and suffering from amnesia, before racing to elude assassins and attempting to regain his memory.

IMDb: 7.9/10

Encode

Source:

Release:
The.Bourne.Identity.2002.2160p.UHD.BluRay.REMUX.HDR.HEVC.DTS-X-EPSiLON

Mediainfo

General
Format : Matroska
Format version : Version 4 / Version 2
File size : 10.1 GiB
Duration : 1 h 58 min
Overall bit rate : 12.3 Mb/s
Encoded date : UTC 2018-06-07 01:48:31
Writing application : mkvmerge v23.0.0 ('The Bride Said No') 64-bit
Writing library : libebml v1.3.6 + libmatroska v1.4.9

Video
ID : 1
Format : HEVC
Format/Info : High Efficiency Video Coding
Format profile : MainĀ [email protected]@Main
Codec ID : V_MPEGH/ISO/HEVC
Duration : 1 h 58 min
Bit rate : 11.1 Mb/s
Width : 3 840 pixels
Height : 1 632 pixels
Display aspect ratio : 2.35:1
Frame rate mode : Constant
Frame rate : 23.976 (24000/1001) FPS
Color space : YUV
Chroma subsampling : 4:2:0
Bit depth : 10 bits
Bits/(Pixel*Frame) : 0.074
Stream size : 9.17 GiB (90%)
Writing library : x265 2.8+12-9cde2c278464:[Windows][MSVC 1914][64 bit] 10bit
Encoding settings : cpuid=1111039 / frame-threads=5 / numa-pools=32,0 / wpp / no-pmode / no-pme / no-psnr / no-ssim / log-level=2 / input-csp=1 / input-res=3840x1632 / interlace=0 / total-frames=170400 / level-idc=0 / high-tier=1 / uhd-bd=0 / ref=5 / no-allow-non-conformance / repeat-headers / annexb / no-aud / no-hrd / info / hash=0 / no-temporal-layers / open-gop / min-keyint=23 / keyint=250 / gop-lookahead=0 / bframes=8 / b-adapt=2 / b-pyramid / bframe-bias=0 / rc-lookahead=90 / lookahead-slices=0 / scenecut=40 / radl=0 / no-intra-refresh / ctu=64 / min-cu-size=8 / no-rect / no-amp / max-tu-size=32 / tu-inter-depth=2 / tu-intra-depth=2 / limit-tu=0 / rdoq-level=2 / dynamic-rd=0.00 / no-ssim-rd / signhide / no-tskip / nr-intra=0 / nr-inter=0 / no-constrained-intra / no-strong-intra-smoothing / max-merge=3 / limit-refs=3 / limit-modes / me=3 / subme=7 / merange=57 / temporal-mvp / weightp / no-weightb / no-analyze-src-pics / deblock=-3:-3 / no-sao / no-sao-non-deblock / rd=5 / no-early-skip / rskip / no-fast-intra / no-tskip-fast / no-cu-lossless / no-b-intra / no-splitrd-skip / rdpenalty=0 / psy-rd=2.00 / psy-rdoq=1.00 / no-rd-refine / no-lossless / cbqpoffs=0 / crqpoffs=0 / rc=crf / crf=17.5 / qcomp=0.60 / qpstep=4 / stats-write=0 / stats-read=0 / ipratio=1.40 / pbratio=1.30 / aq-mode=3 / aq-strength=1.00 / cutree / zone-count=0 / no-strict-cbr / qg-size=32 / no-rc-grain / qpmax=69 / qpmin=0 / no-const-vbv / sar=0 / overscan=0 / videoformat=5 / range=0 / colorprim=9 / transfer=16 / colormatrix=9 / chromaloc=0 / display-window=0 / master-display=G(13250,34500)B(7500,3000)R(34000,16000)WP(15635,16450)L(10000000,0) / max-cll=1000,73 / min-luma=0 / max-luma=1023 / log2-max-poc-lsb=8 / vui-timing-info / vui-hrd-info / slices=1 / no-opt-qp-pps / no-opt-ref-list-length-pps / no-multi-pass-opt-rps / scenecut-bias=0.05 / no-opt-cu-delta-qp / aq-motion / hdr / hdr-opt / no-dhdr10-opt / no-idr-recovery-sei / analysis-reuse-level=5 / scale-factor=0 / refine-intra=0 / refine-inter=0 / refine-mv=0 / no-limit-sao / ctu-info=0 / no-lowpass-dct / refine-mv-type=0 / copy-pic=1 / max-ausize-factor=1.0 / no-dynamic-refine / no-single-sei
Language : English
Default : Yes
Forced : No
Color range : Limited
Color primaries : BT.2020
Transfer characteristics : SMPTE ST 2084
Matrix coefficients : BT.2020 non-constant
Mastering display color primaries : R: x=0.680000 y=0.320000, G: x=0.265000 y=0.690000, B: x=0.150000 y=0.060000, White point: x=0.312700 y=0.329000
Mastering display luminance : min: 0.0000 cd/m2, max: 1000.0000 cd/m2
Maximum Content Light Level : 1000 cd/m2
Maximum Frame-Average Light Level : 73 cd/m2

Audio #1
ID : 2
Format : AAC
Format/Info : Advanced Audio Codec
Format profile : LC
Codec ID : A_AAC
Duration : 1 h 58 min
Bit rate : 995 kb/s
Channel(s) : 8 channels
Channel positions : Front: L C R, Side: 4, LFE
Sampling rate : 48.0 kHz
Frame rate : 46.875 FPS (1024 spf)
Compression mode : Lossy
Delay relative to video : 20 ms
Stream size : 843 MiB (8%)
Language : English
Default : Yes
Forced : No

Audio #2
ID : 3
Format : AAC
Format/Info : Advanced Audio Codec
Format profile : HE-AAC / LC
Codec ID : A_AAC
Duration : 1 h 58 min
Bit rate : 80.0 kb/s
Channel(s) : 2 channels
Channel positions : Front: L R
Sampling rate : 48.0 kHz / 24.0 kHz
Frame rate : 23.438 FPS (1024 spf)
Compression mode : Lossy
Delay relative to video : 40 ms
Stream size : 67.8 MiB (1%)
Title : Commentary by Director Doug Liman
Language : English
Default : No
Forced : No

Subtitle #1
ID : 4
Format : UTF-8
Codec ID : S_TEXT/UTF8
Codec ID/Info : UTF-8 Plain Text
Duration : 1 h 14 min
Bit rate : 3 b/s
Count of elements : 64
Stream size : 1.88 KiB (0%)
Language : English
Default : No
Forced : Yes

Subtitle #2
ID : 5
Format : PGS
Muxing mode : zlib
Codec ID : S_HDMV/PGS
Codec ID/Info : Picture based subtitle format used on BDs/HD-DVDs
Duration : 1 h 51 min
Bit rate : 29.0 kb/s
Count of elements : 2194
Stream size : 23.1 MiB (0%)
Title : SDH
Language : English
Default : No
Forced : No

Subtitle #3
ID : 6
Format : PGS
Muxing mode : zlib
Codec ID : S_HDMV/PGS
Codec ID/Info : Picture based subtitle format used on BDs/HD-DVDs
Duration : 1 h 57 min
Bit rate : 21.4 kb/s
Count of elements : 2014
Stream size : 18.0 MiB (0%)
Language : Czech
Default : No
Forced : No

Subtitle #4
ID : 7
Format : PGS
Muxing mode : zlib
Codec ID : S_HDMV/PGS
Codec ID/Info : Picture based subtitle format used on BDs/HD-DVDs
Duration : 1 h 57 min
Bit rate : 23.6 kb/s
Count of elements : 2006
Stream size : 19.9 MiB (0%)
Language : Danish
Default : No
Forced : No

Subtitle #5
ID : 8
Format : PGS
Muxing mode : zlib
Codec ID : S_HDMV/PGS
Codec ID/Info : Picture based subtitle format used on BDs/HD-DVDs
Duration : 1 h 57 min
Bit rate : 23.8 kb/s
Count of elements : 1980
Stream size : 20.1 MiB (0%)
Language : Dutch
Default : No
Forced : No

Subtitle #6
ID : 9
Format : PGS
Muxing mode : zlib
Codec ID : S_HDMV/PGS
Codec ID/Info : Picture based subtitle format used on BDs/HD-DVDs
Duration : 1 h 57 min
Bit rate : 20.6 kb/s
Count of elements : 2000
Stream size : 17.3 MiB (0%)
Language : Finnish
Default : No
Forced : No

Subtitle #7
ID : 10
Format : PGS
Muxing mode : zlib
Codec ID : S_HDMV/PGS
Codec ID/Info : Picture based subtitle format used on BDs/HD-DVDs
Duration : 1 h 57 min
Bit rate : 23.9 kb/s
Count of elements : 1936
Stream size : 20.1 MiB (0%)
Language : French
Default : No
Forced : No

Subtitle #8
ID : 11
Format : PGS
Muxing mode : zlib
Codec ID : S_HDMV/PGS
Codec ID/Info : Picture based subtitle format used on BDs/HD-DVDs
Duration : 1 h 57 min
Bit rate : 26.1 kb/s
Count of elements : 2016
Stream size : 21.9 MiB (0%)
Language : Greek
Default : No
Forced : No

Subtitle #9
ID : 12
Format : PGS
Muxing mode : zlib
Codec ID : S_HDMV/PGS
Codec ID/Info : Picture based subtitle format used on BDs/HD-DVDs
Duration : 1 h 57 min
Bit rate : 22.3 kb/s
Count of elements : 2000
Stream size : 18.8 MiB (0%)
Language : Norwegian
Default : No
Forced : No

Subtitle #10
ID : 13
Format : PGS
Muxing mode : zlib
Codec ID : S_HDMV/PGS
Codec ID/Info : Picture based subtitle format used on BDs/HD-DVDs
Duration : 1 h 57 min
Bit rate : 23.0 kb/s
Count of elements : 2014
Stream size : 19.4 MiB (0%)
Language : Polish
Default : No
Forced : No

Subtitle #11
ID : 14
Format : PGS
Muxing mode : zlib
Codec ID : S_HDMV/PGS
Codec ID/Info : Picture based subtitle format used on BDs/HD-DVDs
Duration : 1 h 57 min
Bit rate : 25.3 kb/s
Count of elements : 2035
Stream size : 21.3 MiB (0%)
Title : Brazilian
Language : Portuguese
Default : No
Forced : No

Subtitle #12
ID : 15
Format : PGS
Muxing mode : zlib
Codec ID : S_HDMV/PGS
Codec ID/Info : Picture based subtitle format used on BDs/HD-DVDs
Duration : 1 h 50 min
Bit rate : 26.4 kb/s
Count of elements : 2002
Stream size : 20.9 MiB (0%)
Language : Spanish
Default : No
Forced : No

Subtitle #13
ID : 16
Format : PGS
Muxing mode : zlib
Codec ID : S_HDMV/PGS
Codec ID/Info : Picture based subtitle format used on BDs/HD-DVDs
Duration : 1 h 57 min
Bit rate : 21.9 kb/s
Count of elements : 2006
Stream size : 18.5 MiB (0%)
Language : Swedish
Default : No
Forced : No

Subtitle #14
ID : 17
Format : PGS
Muxing mode : zlib
Codec ID : S_HDMV/PGS
Codec ID/Info : Picture based subtitle format used on BDs/HD-DVDs
Duration : 1 h 57 min
Bit rate : 60.2 kb/s
Count of elements : 3293
Stream size : 50.5 MiB (0%)
Title : Commentary by director Doug Liman
Language : English
Default : No
Forced : No

Menu
00:00:00.000 : en:"Dead" Man
00:06:28.179 : en:It's Not Coming Back
00:08:34.847 : en:To Switzerland
00:11:38.531 : en:The Wombosi Problem
00:13:38.359 : en:My Name is Jason Bourne
00:19:43.307 : en:The American Embassy
00:25:41.039 : en:Find Jason Bourne
00:29:15.462 : en:Marie Helena Kreutz
00:36:36.319 : en:Home
00:43:56.759 : en:Assassin
00:48:27.738 : en:The Right Thing
00:51:52.234 : en:Paris Pursuit
01:02:01.467 : en:Mr Kane's Hotel Bill
01:10:01.655 : en:The Wombosi Connection
01:18:44.928 : en:Eamon
01:24:20.055 : en:The Killer Outside
01:32:00.181 : en:Bourne's Game
01:38:59.308 : en:A Malfunctioning Weapon
01:45:33.327 : en:Forced Retirement
01:51:53.915 : en:End Titles

Download

File: The Bourne Identity (2002) (2160p BluRay x265 10bit HDR FreetheFish).mkv (10.1 GB)

Movie: Google Drive

Featurettes: Google Drive

Leave a Reply