Tere Naam (2003) (1080p BluRay x265 HEVC 10bit AAC 5.1 Hindi Natty)

Info

Plot: Lower Caste Radhey Mohan is a no good slacker, who is always picking fights and getting himself and his friends in trouble. One day he sees upper caste Nirjala, and is instantly attracted to her. When Nirjala comes to know about him, she is also attracted to him. The problems arise when marriage is proposed with Radhey, as Nirjala’s family with have nothing to do with a lower caste groom, and they arrange Nirjala’s marriage with Rameshwar, a young man from their caste. Radhey is arrested and imprisoned in a prison for the mentally unstable, where is chained to a wall, while Nirjala must undergo preparations to get married to Rameshwar.

Encode

Source:

Tere.Naam.•.2003.•.BD50.•.Untouched.BluRay.•.Eros.•.DRs | 37 GB | Hon3yHD

Mediainfo

General 
Format : Matroska 
Format version : Version 4 / Version 2 
File size : 2.81 GiB 
Duration : 2 h 16 min 
Overall bit rate : 2 938 kb/s 
Movie name : Tere Naam 
Encoded date : UTC 2018-07-14 14:03:37 
Writing application : mkvmerge v25.0.0 ('Prog Noir') 64-bit 
Writing library : libebml v1.3.6 + libmatroska v1.4.9 
Cover : Yes 
Attachments : cover.png 
Writing frontend : Natty 

Video 
ID : 1 
Format : HEVC 
Format/Info : High Efficiency Video Coding 
Format profile : Main [email protected]@Main 
Codec ID : V_MPEGH/ISO/HEVC 
Duration : 2 h 16 min 
Bit rate : 2 477 kb/s 
Width : 1 920 pixels 
Height : 818 pixels 
Display aspect ratio : 2.35:1 
Frame rate mode : Constant 
Frame rate : 24.000 FPS 
Color space : YUV 
Chroma subsampling : 4:2:0 
Bit depth : 10 bits 
Bits/(Pixel*Frame) : 0.066 
Stream size : 2.37 GiB (84%) 
Writing library : x265 2.8+40-0106f9f2f867:[Windows][MSVC 1914][64 bit] 10bit 
Encoding settings : cpuid=1111039 / frame-threads=2 / numa-pools=4 / wpp / no-pmode / no-pme / no-psnr / no-ssim / log-level=2 / input-csp=1 / input-res=1920x818 / interlace=0 / total-frames=197257 / level-idc=0 / high-tier=1 / uhd-bd=0 / ref=5 / no-allow-non-conformance / no-repeat-headers / annexb / no-aud / no-hrd / info / hash=0 / no-temporal-layers / open-gop / min-keyint=24 / keyint=400 / gop-lookahead=0 / bframes=8 / b-adapt=2 / b-pyramid / bframe-bias=0 / rc-lookahead=100 / lookahead-slices=4 / scenecut=40 / radl=0 / no-intra-refresh / ctu=32 / min-cu-size=8 / no-rect / no-amp / max-tu-size=16 / tu-inter-depth=1 / tu-intra-depth=1 / limit-tu=0 / rdoq-level=2 / dynamic-rd=0.00 / no-ssim-rd / signhide / no-tskip / nr-intra=0 / nr-inter=0 / no-constrained-intra / no-strong-intra-smoothing / max-merge=2 / limit-refs=3 / limit-modes / me=3 / subme=5 / merange=57 / temporal-mvp / weightp / weightb / no-analyze-src-pics / deblock=-2:0 / no-sao / no-sao-non-deblock / rd=4 / no-early-skip / rskip / no-fast-intra / no-tskip-fast / no-cu-lossless / no-b-intra / no-splitrd-skip / rdpenalty=0 / psy-rd=1.50 / psy-rdoq=1.00 / no-rd-refine / no-lossless / cbqpoffs=0 / crqpoffs=0 / rc=crf / crf=24.0 / qcomp=0.60 / qpstep=4 / stats-write=0 / stats-read=0 / ipratio=1.40 / pbratio=1.30 / aq-mode=3 / aq-strength=0.90 / cutree / zone-count=0 / no-strict-cbr / qg-size=32 / no-rc-grain / qpmax=69 / qpmin=0 / no-const-vbv / sar=0 / overscan=0 / videoformat=5 / range=0 / colorprim=1 / transfer=1 / colormatrix=1 / chromaloc=0 / display-window=0 / max-cll=0,0 / min-luma=0 / max-luma=1023 / log2-max-poc-lsb=8 / vui-timing-info / vui-hrd-info / slices=1 / no-opt-qp-pps / no-opt-ref-list-length-pps / no-multi-pass-opt-rps / scenecut-bias=0.05 / no-opt-cu-delta-qp / aq-motion / no-hdr / no-hdr-opt / no-dhdr10-opt / no-idr-recovery-sei / analysis-reuse-level=8 / scale-factor=0 / refine-intra=0 / refine-inter=0 / refine-mv=0 / no-limit-sao / ctu-info=0 / no-lowpass-dct / refine-mv-type=0 / copy-pic=1 / max-ausize-factor=1.0 / no-dynamic-refine / no-single-sei 
Default : Yes 
Forced : No 
Color range : Limited 
Color primaries : BT.709 
Transfer characteristics : BT.709 
Matrix coefficients : BT.709 

Audio 
ID : 2 
Format : AAC 
Format/Info : Advanced Audio Codec 
Format profile : LC 
Codec ID : A_AAC 
Duration : 2 h 16 min 
Bit rate : 450 kb/s 
Channel(s) : 6 channels 
Channel positions : Front: L C R, Side: L R, LFE 
Sampling rate : 48.0 kHz 
Frame rate : 46.875 FPS (1024 spf) 
Compression mode : Lossy 
Delay relative to video : 20 ms 
Stream size : 441 MiB (15%) 
Language : Hindi 
Default : No 
Forced : No 

Subtitle 
ID : 3 
Format : PGS 
Muxing mode : zlib 
Codec ID : S_HDMV/PGS 
Codec ID/Info : Picture based subtitle format used on BDs/HD-DVDs 
Duration : 2 h 12 min 
Bit rate : 22.4 kb/s 
Count of elements : 2014 
Stream size : 21.2 MiB (1%) 
Language : English 
Default : No 
Forced : No 

Menu 
00:00:00.000 : en:Chapter 01 
00:02:14.875 : en:Chapter 02 
00:06:53.666 : en:Chapter 03 
00:07:58.708 : en:Chapter 04 
00:13:05.750 : en:Chapter 05 
00:19:48.375 : en:Chapter 06 
00:28:09.583 : en:Chapter 07 
00:33:08.458 : en:Chapter 08 
00:44:39.750 : en:Chapter 09 
00:52:59.250 : en:Chapter 10 
00:56:55.791 : en:Chapter 11 
01:02:11.083 : en:Chapter 12 
01:08:01.541 : en:Chapter 13 
01:17:01.833 : en:Chapter 14 
01:17:38.836 : en:Chapter 00 
01:24:01.586 : en:Chapter 01 
01:28:22.795 : en:Chapter 02 
01:31:48.753 : en:Chapter 03 
01:43:03.920 : en:Chapter 04 
01:49:18.045 : en:Chapter 05 
01:57:04.795 : en:Chapter 06 
02:01:59.420 : en:Chapter 07 
02:06:53.336 : en:Chapter 08

Screencaps

Download

File: Tere Naam (2003) (1080p BluRay x265 Natty).mkv (2.8 GB)

Hindi: Google Drive

Leave a Reply