Weathering With You (2019) (2160p BluRay x265 HEVC 10bit HDR FLAC Japanese)

Info

Plot: A high-school boy who has run away to Tokyo befriends a girl who appears to be able to manipulate the weather.

Encode

BluRay release with Japanese audio and English, Chinese, Japanese official PGS subtitles.

Mediainfo

General
Format                                   : Matroska
Format version                           : Version 4 / Version 2
File size                                : 7.23 GiB
Duration                                 : 1h 52mn
Overall bit rate mode                    : Variable
Overall bit rate                         : 9 226 Kbps
Encoded date                             : UTC 2020-05-27 04:25:25
Writing application                      : mkvmerge v40.0.0 ('Old Town Road + Pony') 64-bit
Writing library                          : libebml v1.3.9 + libmatroska v1.5.2

Video
ID                                       : 1
Format                                   : HEVC
Format/Info                              : High Efficiency Video Coding
Format profile                           : Main [email protected]@High
Codec ID                                 : V_MPEGH/ISO/HEVC
Duration                                 : 1h 52mn
Bit rate                                 : 7 894 Kbps
Width                                    : 3 840 pixels
Height                                   : 2 160 pixels
Display aspect ratio                     : 16:9
Frame rate mode                          : Constant
Frame rate                               : 23.976 (24000/1001) fps
Color space                              : YUV
Chroma subsampling                       : 4:2:0
Bit depth                                : 10 bits
Bits/(Pixel*Frame)                       : 0.040
Stream size                              : 6.19 GiB (86%)
Writing library                          : x265 3.3+3-g8f8e332f1+29:[Windows][GCC 9.3.0][64 bit] Yuuki 10bit+8bit+12bit
Encoding settings                        : rc=crf / crf=17.0000 / qcomp=0.65 / qpstep=4 / stats-write=0 / stats-read=0 / vbv-maxrate=30000 / vbv-bufsize=40000 / vbv-init=0.9 / crf-max=0.0 / crf-min=0.0 / no-lossless / no-cu-lossless / aq-mode=2 / aq-strength=0.90 / cbqpoffs=-2 / crqpoffs=-2 / ipratio=1.40 / pbratio=1.20 / psy-rd=1.50 / psy-rdoq=0.80 / deblock=-1:-1 / ref=5 / limit-refs=1 / limit-modes / bframes=8 / b-adapt=2 / bframe-bias=0 / b-pyramid / b-intra / weightp / weightb / min-keyint=1 / max-keyint=360 / rc-lookahead=80 / gop-lookahead=0 / scenecut=40 / hist-scenecut=0 / radl=0 / max-cu-size=64 / min-cu-size=8 / me=3 / subme=4 / merange=57 / rdoq-level=1 / rd=4 / rdpenalty=0 / dynamic-rd=0.00 / no-rd-refine / ----- / cutree / no-sao / no-rect / no-amp / no-open-gop / wpp / no-pmode / no-pme / no-psnr / no-ssim / nr-intra=0 / nr-inter=0 / no-constrained-intra / no-strong-intra-smoothing / max-tu-size=32 / tu-inter-depth=3 / tu-intra-depth=3 / limit-tu=4 / qg-size=8 / qpmax=69 / qpmin=0 / ----- / cpuid=1176575 / frame-threads=4 / numa-pools=26,- / log-level=2 / input-csp=1 / input-res=3840x2160 / interlace=0 / level-idc=0 / high-tier=1 / uhd-bd=0 / no-allow-non-conformance / repeat-headers / no-aud / no-hrd / info / hash=0 / no-temporal-layers / lookahead-slices=0 / no-splice / no-intra-refresh / no-ssim-rd / signhide / no-tskip / max-merge=4 / temporal-mvp / no-frame-dup / no-hme / no-analyze-src-pics / no-sao-non-deblock / selective-sao=0 / no-early-skip / rskip / no-fast-intra / no-tskip-fast / no-splitrd-skip / zone-count=0 / no-strict-cbr / no-rc-grain / no-const-vbv / sar=0 / overscan=0 / videoformat=5 / range=0 / colorprim=9 / transfer=16 / colormatrix=9 / chromaloc=1 / chromaloc-top=2 / chromaloc-bottom=2 / display-window=0 / master-display=G(8500,39850)B(6550,2300)R(35400,14600)WP(15635,16450)L(10000000,0) / cll=992,772 / min-luma=0 / max-luma=1023 / log2-max-poc-lsb=8 / vui-timing-info / vui-hrd-info / slices=1 / no-opt-qp-pps / no-opt-ref-list-length-pps / no-multi-pass-opt-rps / scenecut-bias=0.05 / hist-threshold=0.01 / no-opt-cu-delta-qp / no-aq-motion / hdr10 / hdr10-opt / no-dhdr10-opt / no-idr-recovery-sei / analysis-reuse-level=0 / analysis-save-reuse-level=0 / analysis-load-reuse-level=0 / scale-factor=0 / refine-intra=0 / refine-inter=0 / refine-mv=1 / refine-ctu-distortion=0 / no-limit-sao / ctu-info=0 / no-lowpass-dct / refine-analysis-type=0 / copy-pic=1 / max-ausize-factor=1.0 / no-dynamic-refine / no-single-sei / no-hevc-aq / no-svt / no-field / qp-adaptation-range=1.00 / no-scenecut-aware-qpconformance-window-offsets / right=0 / bottom=0
Default                                  : Yes
Forced                                   : No
Color range                              : Limited
Color primaries                          : BT.2020
Matrix coefficients                      : BT.2020 non-constant

Audio
ID                                       : 2
Format                                   : FLAC
Format/Info                              : Free Lossless Audio Codec
Codec ID                                 : A_FLAC
Duration                                 : 1h 52mn
Bit rate mode                            : Variable
Bit rate                                 : 1 289 Kbps
Channel(s)                               : 2 channels
Channel positions                        : Front: L R
Sampling rate                            : 48.0 KHz
Frame rate                               : 11.719 fps (4096 spf)
Bit depth                                : 24 bits
Stream size                              : 1.01 GiB (14%)
Title                                    : 日本語 DTS-HD 2.0ch
Writing library                          : libFLAC 1.3.3 (UTC 2019-08-04)
Language                                 : Japanese
Default                                  : Yes
Forced                                   : No

Text #1
ID                                       : 3
Format                                   : PGS
Muxing mode                              : zlib
Codec ID                                 : S_HDMV/PGS
Codec ID/Info                            : Picture based subtitle format used on BDs/HD-DVDs
Duration                                 : 1h 51mn
Bit rate                                 : 42.8 Kbps
Count of elements                        : 3506
Stream size                              : 34.1 MiB (0%)
Language                                 : Japanese
Default                                  : Yes
Forced                                   : No

Text #2
ID                                       : 4
Format                                   : PGS
Muxing mode                              : zlib
Codec ID                                 : S_HDMV/PGS
Codec ID/Info                            : Picture based subtitle format used on BDs/HD-DVDs
Duration                                 : 1h 51mn
Bit rate                                 : 33.4 Kbps
Count of elements                        : 3134
Stream size                              : 26.5 MiB (0%)
Language                                 : English
Default                                  : No
Forced                                   : No

Text #3
ID                                       : 5
Format                                   : PGS
Muxing mode                              : zlib
Codec ID                                 : S_HDMV/PGS
Codec ID/Info                            : Picture based subtitle format used on BDs/HD-DVDs
Duration                                 : 1h 50mn
Bit rate                                 : 30.6 Kbps
Count of elements                        : 3462
Stream size                              : 24.3 MiB (0%)
Language                                 : Chinese
Default                                  : No
Forced                                   : No

Menu
00:00:00.000                             : ja:空の世界
00:03:52.315                             : ja:島を出た少年
00:07:13.433                             : ja:東京
00:11:51.210                             : ja:K&Aプランニング
00:17:27.046                             : ja:新しい毎日
00:19:46.352                             : ja:救出
00:22:25.261                             : ja:100%の晴れ女
00:26:08.066                             : ja:空の魚
00:30:07.973                             : ja:初訪問
00:34:27.983                             : ja:お天気ビジネス
00:38:29.807                             : ja:花火大会
00:41:36.494                             : ja:似た者同士
00:44:06.060                             : ja:天気の巫女
00:47:58.876                             : ja:刑事
00:52:11.462                             : ja:最後の依頼
00:55:55.852                             : ja:告白
00:58:46.940                             : ja:追手
01:01:42.532                             : ja:逃避行
01:05:18.581                             : ja:真夏の雪
01:08:56.132                             : ja:最後の夜
01:13:52.928                             : ja:あの光へ
01:16:58.697                             : ja:å¿«æ™´
01:19:57.710                             : ja:脱走
01:23:15.949                             : ja:涙
01:25:48.226                             : ja:廃ビルへ
01:28:51.326                             : ja:愛にできることはまだ
01:33:02.869                             : ja:青空よりも
01:38:33.116                             : ja:再びの東京
01:43:29.328                             : ja:大丈夫
01:47:40.829                             : ja:エンドロール

Download

File: [LoliHouse] Tenki No Ko [BDRip 3840×2160 HEVC-10bit HDR FLAC PGS(chs,eng,jpn)].mkv (7.2 GiB)

Movie: Google Drive

5 thoughts on “Weathering With You (2019) (2160p BluRay x265 HEVC 10bit HDR FLAC Japanese)

Leave a Reply