Taare Zameen Par (2007) (1080p BluRay x265 HEVC 10bit AAC 5.1 Hindi Natty)

Info

Plot: Ishaan Awasthi is an eight-year-old whose world is filled with wonders that no one else seems to appreciate; colours, fish, dogs and kites are just not important in the world of adults, who are much more interested in things like homework, marks and neatness. Ishaan just cannot seem to get anything right in class. He is then sent off to boarding school, where his life is about to change forever.

Encode

Source:

Taare.Zameen.Par.•.2007.•.BD50.•.Untouched.BluRay.•.DRs | 45 GB | Hon3yHD

Mediainfo

General 
Format : Matroska 
Format version : Version 4 / Version 2 
File size : 4.17 GiB 
Duration : 2 h 42 min 
Overall bit rate : 3 674 kb/s 
Encoded date : UTC 2018-07-03 17:59:54 
Writing application : mkvmerge v24.0.0 ('Beyond The Pale') 64-bit 
Writing library : libebml v1.3.6 + libmatroska v1.4.9 
Writing frontend : Natty 

Video 
ID : 1 
Format : HEVC 
Format/Info : High Efficiency Video Coding 
Format profile : Main [email protected]@Main 
Codec ID : V_MPEGH/ISO/HEVC 
Duration : 2 h 42 min 
Bit rate : 3 171 kb/s 
Width : 1 920 pixels 
Height : 818 pixels 
Display aspect ratio : 2.35:1 
Frame rate mode : Constant 
Frame rate : 23.976 (24000/1001) FPS 
Color space : YUV 
Chroma subsampling : 4:2:0 
Bit depth : 10 bits 
Bits/(Pixel*Frame) : 0.084 
Stream size : 3.60 GiB (86%) 
Writing library : x265 2.8+24-289b8a3730ae:[Windows][MSVC 1914][64 bit] 10bit 
Encoding settings : cpuid=1111039 / frame-threads=2 / numa-pools=4 / wpp / no-pmode / no-pme / no-psnr / no-ssim / log-level=2 / input-csp=1 / input-res=1920x818 / interlace=0 / total-frames=233834 / level-idc=0 / high-tier=1 / uhd-bd=0 / ref=5 / no-allow-non-conformance / no-repeat-headers / annexb / no-aud / no-hrd / info / hash=0 / no-temporal-layers / open-gop / min-keyint=23 / keyint=400 / gop-lookahead=0 / bframes=8 / b-adapt=2 / b-pyramid / bframe-bias=0 / rc-lookahead=100 / lookahead-slices=4 / scenecut=40 / radl=0 / no-intra-refresh / ctu=32 / min-cu-size=8 / no-rect / no-amp / max-tu-size=16 / tu-inter-depth=1 / tu-intra-depth=1 / limit-tu=0 / rdoq-level=2 / dynamic-rd=0.00 / no-ssim-rd / signhide / no-tskip / nr-intra=0 / nr-inter=0 / no-constrained-intra / no-strong-intra-smoothing / max-merge=2 / limit-refs=3 / limit-modes / me=3 / subme=5 / merange=57 / temporal-mvp / weightp / weightb / no-analyze-src-pics / deblock=-3:0 / no-sao / no-sao-non-deblock / rd=4 / no-early-skip / rskip / no-fast-intra / no-tskip-fast / no-cu-lossless / no-b-intra / no-splitrd-skip / rdpenalty=0 / psy-rd=1.50 / psy-rdoq=0.50 / no-rd-refine / no-lossless / cbqpoffs=0 / crqpoffs=0 / rc=crf / crf=24.0 / qcomp=0.60 / qpstep=4 / stats-write=0 / stats-read=0 / ipratio=1.40 / pbratio=1.30 / aq-mode=3 / aq-strength=1.00 / cutree / zone-count=0 / no-strict-cbr / qg-size=32 / no-rc-grain / qpmax=69 / qpmin=0 / no-const-vbv / sar=0 / overscan=0 / videoformat=5 / range=0 / colorprim=1 / transfer=1 / colormatrix=1 / chromaloc=0 / display-window=0 / max-cll=0,0 / min-luma=0 / max-luma=1023 / log2-max-poc-lsb=8 / vui-timing-info / vui-hrd-info / slices=1 / no-opt-qp-pps / no-opt-ref-list-length-pps / no-multi-pass-opt-rps / scenecut-bias=0.05 / no-opt-cu-delta-qp / aq-motion / no-hdr / no-hdr-opt / no-dhdr10-opt / no-idr-recovery-sei / analysis-reuse-level=8 / scale-factor=0 / refine-intra=0 / refine-inter=0 / refine-mv=0 / no-limit-sao / ctu-info=0 / no-lowpass-dct / refine-mv-type=0 / copy-pic=1 / max-ausize-factor=1.0 / no-dynamic-refine / no-single-sei 
Default : Yes 
Forced : No 
Color range : Limited 
Color primaries : BT.709 
Transfer characteristics : BT.709 
Matrix coefficients : BT.709 

Audio #1 
ID : 2 
Format : AAC 
Format/Info : Advanced Audio Codec 
Format profile : LC 
Codec ID : A_AAC 
Duration : 2 h 42 min 
Bit rate : 452 kb/s 
Channel(s) : 6 channels 
Channel positions : Front: L C R, Side: L R, LFE 
Sampling rate : 48.0 kHz 
Frame rate : 46.875 FPS (1024 spf) 
Compression mode : Lossy 
Delay relative to video : 20 ms 
Stream size : 525 MiB (12%) 
Language : Hindi 
Default : No 
Forced : No 

Audio #2 
ID : 3 
Format : AAC 
Format/Info : Advanced Audio Codec 
Format profile : HE-AAC / LC 
Codec ID : A_AAC 
Duration : 2 h 42 min 
Bit rate : 41.1 kb/s 
Channel(s) : 2 channels 
Channel positions : Front: L R 
Sampling rate : 48.0 kHz / 24.0 kHz 
Frame rate : 23.438 FPS (1024 spf) 
Compression mode : Lossy 
Delay relative to video : 40 ms 
Stream size : 47.8 MiB (1%) 
Title : Commentary 
Language : English 
Default : No 
Forced : No 

Subtitle 
ID : 4 
Format : PGS 
Muxing mode : zlib 
Codec ID : S_HDMV/PGS 
Codec ID/Info : Picture based subtitle format used on BDs/HD-DVDs 
Duration : 2 h 32 min 
Bit rate : 27.5 kb/s 
Count of elements : 2662 
Stream size : 30.1 MiB (1%) 
Language : English 
Default : No 
Forced : No 

Menu 
00:00:00.000 : en:Chapter 01 
00:08:25.505 : en:Chapter 02 
00:17:52.071 : en:Chapter 03 
00:21:15.482 : en:Chapter 04 
00:27:19.054 : en:Chapter 05 
00:33:32.635 : en:Chapter 06 
00:37:13.564 : en:Chapter 07 
00:40:24.880 : en:Chapter 08 
00:46:47.387 : en:Chapter 09 
00:51:18.825 : en:Chapter 10 
00:57:10.427 : en:Chapter 11 
01:03:05.072 : en:Chapter 12 
01:06:05.795 : en:Chapter 13 
01:11:13.352 : en:Chapter 14 
01:17:27.142 : en:Chapter 15 
01:25:32.168 : en:Chapter 16 
01:30:46.441 : en:Chapter 17 
01:38:59.808 : en:Chapter 18 
01:47:29.151 : en:Chapter 19 
01:49:12.504 : en:Chapter 20 
01:56:24.352 : en:Chapter 21 
02:03:04.710 : en:Chapter 22 
02:06:57.318 : en:Chapter 23 
02:11:37.890 : en:Chapter 24 
02:19:06.338 : en:Chapter 25 
02:26:09.385 : en:Chapter 26 
02:31:22.073 : en:Chapter 27 
02:35:36.994 : en:Chapter 28

Screencaps

Download

File: Taare Zameen Par (2007) (1080p BluRay x265 Natty).mkv (4.2 GB)

Movie: Google Drive

Leave a Reply