Scream 4 2011 (1080p Bluray x265 HEVC 10bit AAC 5.1 Tigole)

Info

Plot: Sidney Prescott, now the author of a self-help book, returns home to Woodsboro on the last stop of her book tour. There she reconnects with Sheriff Dewey and Gale, who are now married, as well as her cousin Jill and her Aunt Kate. Unfortunately, Sidney’s appearance also brings about the return of Ghostface, putting Sidney, Gale, and Dewey, along with Jill, her friends, and the whole town of Woodsboro in danger.

IMDb: 6.2/10

Encode

Scream 4 2011 in 1080p, encoded with x265 in HEVC and AAC 5.1 English, with English and German subtitles!
Encoded using the time consuming 2 pass, 10 bit color at 3346 kbps, from a Blu-ray source, for the highest quality possible.

Source:

Complete name : Scream_4_t00.mkv 
File size : 25.2 GiB 
Duration : 1 h 50 min 
Overall bit rate mode : Variable 
Overall bit rate : 32.5 Mb/s

Mediainfo

General 
Format : Matroska 
Format version : Version 4 / Version 2 
File size : 3.00 GiB 
Duration : 1 h 50 min 
Overall bit rate : 3 874 kb/s 
Movie name : Scream 4 
Encoded date : UTC 2017-10-23 00:11:32 
Writing application : mkvmerge v14.0.0 ('Flow') 64bit 
Writing library : libebml v1.3.4 + libmatroska v1.4.5 

Video 
ID : 1 
Format : HEVC 
Format/Info : High Efficiency Video Coding 
Format profile : Main [email protected]@Main 
Codec ID : V_MPEGH/ISO/HEVC 
Duration : 1 h 50 min 
Bit rate : 3 345 kb/s 
Width : 1 920 pixels 
Height : 800 pixels 
Display aspect ratio : 2.40:1 
Frame rate mode : Constant 
Frame rate : 24.000 FPS 
Color space : YUV 
Chroma subsampling : 4:2:0 
Bit depth : 10 bits 
Bits/(Pixel*Frame) : 0.091 
Stream size : 2.59 GiB (86%) 
Writing library : x265 2.5+22-8db95a1da9f8:[Windows][GCC 7.1.0][64 bit] 10bit 
Encoding settings : cpuid=1173503 / frame-threads=3 / numa-pools=8 / wpp / no-pmode / no-pme / no-psnr / no-ssim / log-level=2 / input-csp=1 / input-res=1920x800 / interlace=0 / total-frames=159544 / level-idc=0 / high-tier=1 / uhd-bd=0 / ref=4 / no-allow-non-conformance / no-repeat-headers / annexb / no-aud / no-hrd / info / hash=0 / no-temporal-layers / open-gop / min-keyint=24 / keyint=250 / bframes=4 / b-adapt=2 / b-pyramid / bframe-bias=0 / rc-lookahead=25 / lookahead-slices=4 / scenecut=40 / no-intra-refresh / ctu=64 / min-cu-size=8 / rect / no-amp / max-tu-size=32 / tu-inter-depth=1 / tu-intra-depth=1 / limit-tu=0 / rdoq-level=2 / dynamic-rd=0.00 / no-ssim-rd / signhide / no-tskip / nr-intra=0 / nr-inter=0 / no-constrained-intra / strong-intra-smoothing / max-merge=3 / limit-refs=3 / limit-modes / me=3 / subme=3 / merange=57 / temporal-mvp / weightp / no-weightb / no-analyze-src-pics / deblock=0:0 / sao / no-sao-non-deblock / rd=4 / no-early-skip / rskip / no-fast-intra / no-tskip-fast / no-cu-lossless / no-b-intra / no-splitrd-skip / rdpenalty=0 / psy-rd=2.00 / psy-rdoq=1.00 / no-rd-refine / analysis-reuse-mode=0 / no-lossless / cbqpoffs=0 / crqpoffs=0 / rc=abr / bitrate=3346 / qcomp=0.60 / qpstep=4 / stats-write=0 / stats-read=2 / cplxblur=20.0 / qblur=0.5 / ipratio=1.40 / pbratio=1.30 / aq-mode=3 / aq-strength=1.00 / cutree / zone-count=0 / no-strict-cbr / qg-size=32 / no-rc-grain / qpmax=69 / qpmin=0 / no-const-vbv / sar=0 / overscan=0 / videoformat=5 / range=0 / colorprim=2 / transfer=2 / colormatrix=2 / chromaloc=0 / display-window=0 / max-cll=0,0 / min-luma=0 / max-luma=1023 / log2-max-poc-lsb=8 / vui-timing-info / vui-hrd-info / slices=1 / opt-qp-pps / opt-ref-list-length-pps / no-multi-pass-opt-rps / scenecut-bias=0.05 / no-opt-cu-delta-qp / no-aq-motion / no-hdr / no-hdr-opt / no-dhdr10-opt / analysis-reuse-level=5 / scale-factor=0 / refine-intra=0 / refine-inter=0 / refine-mv=0 / no-limit-sao / ctu-info=0 
Default : Yes 
Forced : No 

Audio #1 
ID : 2 
Format : AAC 
Format/Info : Advanced Audio Codec 
Format profile : LC 
Codec ID : A_AAC 
Duration : 1 h 50 min 
Bit rate : 447 kb/s 
Channel(s) : 6 channels 
Channel positions : Front: L C R, Side: L R, LFE 
Sampling rate : 48.0 kHz 
Frame rate : 46.875 FPS (1024 spf) 
Compression mode : Lossy 
Delay relative to video : 20 ms 
Stream size : 354 MiB (12%) 
Language : English 
Default : Yes 
Forced : No 

Audio #2 
ID : 3 
Format : AAC 
Format/Info : Advanced Audio Codec 
Format profile : HE-AAC / LC 
Codec ID : A_AAC 
Duration : 1 h 50 min 
Bit rate : 66.2 kb/s 
Channel(s) : 2 channels 
Channel positions : Front: L R 
Sampling rate : 48.0 kHz / 24.0 kHz 
Frame rate : 23.438 FPS (1024 spf) 
Compression mode : Lossy 
Delay relative to video : 40 ms 
Stream size : 52.2 MiB (2%) 
Title : Commentary 
Language : English 
Default : No 
Forced : No 

Text #1 
ID : 4 
Format : VobSub 
Muxing mode : zlib 
Codec ID : S_VOBSUB 
Codec ID/Info : Picture based subtitle format used on DVDs 
Duration : 1 h 43 min 
Bit rate : 11.8 kb/s 
Count of elements : 1152 
Stream size : 8.74 MiB (0%) 
Language : English 
Default : No 
Forced : No 

Text #2 
ID : 5 
Format : VobSub 
Muxing mode : zlib 
Codec ID : S_VOBSUB 
Codec ID/Info : Picture based subtitle format used on DVDs 
Duration : 1 h 43 min 
Bit rate : 12.6 kb/s 
Count of elements : 1160 
Stream size : 9.32 MiB (0%) 
Language : German 
Default : No 
Forced : No 

Menu 
00:00:00.000 : en:Chapter 01 
00:05:38.250 : en:Chapter 02 
00:10:57.375 : en:Chapter 03 
00:15:03.875 : en:Chapter 04 
00:20:42.541 : en:Chapter 05 
00:27:03.416 : en:Chapter 06 
00:31:24.291 : en:Chapter 07 
00:35:07.708 : en:Chapter 08 
00:41:45.125 : en:Chapter 09 
00:45:07.541 : en:Chapter 10 
00:51:49.291 : en:Chapter 11 
01:00:04.333 : en:Chapter 12 
01:10:26.541 : en:Chapter 13 
01:20:22.166 : en:Chapter 14 
01:31:57.125 : en:Chapter 15 
01:43:33.750 : en:Chapter 16 
01:50:45.916 : en:Chapter 17

Screencaps

Download

File: Scream 4 2011 (1080p x265 10bit Tigole).mkv (3.0 GB)

Movie: Google Drive

Featurettes: Google Drive

Leave a Reply