Scream 2 1997 (1080p Bluray x265 HEVC 10bit AAC 5.1 Tigole)

Info

Plot: Two years after the terrifying events that occurred in Woodsboro, Sidney is now attending Windsor College in Cincinnati with long time friend Randy. Meanwhile, Gale Weathers best selling book on Sidney’s life has now been made into a major motion picture. When two college students are killed in a theatre while watching the new film “Stab,” Sidney knows deep down that history is repeating itself.

Encode

Scream 2 1997 in 1080p, encoded with x265 in HEVC and AAC 5.1 English, with subtitles!
Encoded using the time consuming 2 pass, 10 bit color at 3750 kbps, from a Blu-ray source, for the highest quality possible.

Source:

Complete name : Scream_2_t03.mkv 
File size : 18.6 GiB 
Duration : 2 h 0 min 
Overall bit rate mode : Variable 
Overall bit rate : 22.1 Mb/s

Mediainfo

General 
Format : Matroska 
Format version : Version 4 / Version 2 
File size : 3.63 GiB 
Duration : 2 h 0 min 
Overall bit rate : 4 320 kb/s 
Movie name : Scream 2 
Encoded date : UTC 2017-10-22 08:35:54 
Writing application : mkvmerge v14.0.0 ('Flow') 64bit 
Writing library : libebml v1.3.4 + libmatroska v1.4.5 

Video 
ID : 1 
Format : HEVC 
Format/Info : High Efficiency Video Coding 
Format profile : Main [email protected]@Main 
Codec ID : V_MPEGH/ISO/HEVC 
Duration : 2 h 0 min 
Bit rate : 3 750 kb/s 
Width : 1 920 pixels 
Height : 816 pixels 
Display aspect ratio : 2.35:1 
Frame rate mode : Constant 
Frame rate : 23.976 (24000/1001) FPS 
Color space : YUV 
Chroma subsampling : 4:2:0 
Bit depth : 10 bits 
Bits/(Pixel*Frame) : 0.100 
Stream size : 3.15 GiB (87%) 
Writing library : x265 2.5+22-8db95a1da9f8:[Windows][GCC 7.1.0][64 bit] 10bit 
Encoding settings : cpuid=1173503 / frame-threads=3 / numa-pools=8 / wpp / no-pmode / no-pme / no-psnr / no-ssim / log-level=2 / input-csp=1 / input-res=1920x816 / interlace=0 / total-frames=172945 / level-idc=0 / high-tier=1 / uhd-bd=0 / ref=4 / no-allow-non-conformance / no-repeat-headers / annexb / no-aud / no-hrd / info / hash=0 / no-temporal-layers / open-gop / min-keyint=23 / keyint=250 / bframes=4 / b-adapt=2 / b-pyramid / bframe-bias=0 / rc-lookahead=25 / lookahead-slices=4 / scenecut=40 / no-intra-refresh / ctu=64 / min-cu-size=8 / rect / no-amp / max-tu-size=32 / tu-inter-depth=1 / tu-intra-depth=1 / limit-tu=0 / rdoq-level=2 / dynamic-rd=0.00 / no-ssim-rd / signhide / no-tskip / nr-intra=0 / nr-inter=0 / no-constrained-intra / strong-intra-smoothing / max-merge=3 / limit-refs=3 / limit-modes / me=3 / subme=3 / merange=57 / temporal-mvp / weightp / no-weightb / no-analyze-src-pics / deblock=0:0 / sao / no-sao-non-deblock / rd=4 / no-early-skip / rskip / no-fast-intra / no-tskip-fast / no-cu-lossless / no-b-intra / no-splitrd-skip / rdpenalty=0 / psy-rd=2.00 / psy-rdoq=1.00 / no-rd-refine / analysis-reuse-mode=0 / no-lossless / cbqpoffs=0 / crqpoffs=0 / rc=abr / bitrate=3750 / qcomp=0.60 / qpstep=4 / stats-write=0 / stats-read=2 / cplxblur=20.0 / qblur=0.5 / ipratio=1.40 / pbratio=1.30 / aq-mode=2 / aq-strength=1.00 / cutree / zone-count=0 / no-strict-cbr / qg-size=32 / no-rc-grain / qpmax=69 / qpmin=0 / no-const-vbv / sar=0 / overscan=0 / videoformat=5 / range=0 / colorprim=2 / transfer=2 / colormatrix=2 / chromaloc=0 / display-window=0 / max-cll=0,0 / min-luma=0 / max-luma=1023 / log2-max-poc-lsb=8 / vui-timing-info / vui-hrd-info / slices=1 / opt-qp-pps / opt-ref-list-length-pps / no-multi-pass-opt-rps / scenecut-bias=0.05 / no-opt-cu-delta-qp / no-aq-motion / no-hdr / no-hdr-opt / no-dhdr10-opt / analysis-reuse-level=5 / scale-factor=0 / refine-intra=0 / refine-inter=0 / refine-mv=0 / no-limit-sao / ctu-info=0 
Default : Yes 
Forced : No 

Audio #1 
ID : 2 
Format : AAC 
Format/Info : Advanced Audio Codec 
Format profile : LC 
Codec ID : A_AAC 
Duration : 2 h 0 min 
Bit rate : 481 kb/s 
Channel(s) : 6 channels 
Channel positions : Front: L C R, Side: L R, LFE 
Sampling rate : 48.0 kHz 
Frame rate : 46.875 FPS (1024 spf) 
Compression mode : Lossy 
Delay relative to video : 20 ms 
Stream size : 414 MiB (11%) 
Language : English 
Default : Yes 
Forced : No 

Audio #2 
ID : 3 
Format : AAC 
Format/Info : Advanced Audio Codec 
Format profile : HE-AAC / LC 
Codec ID : A_AAC 
Duration : 2 h 0 min 
Bit rate : 66.2 kb/s 
Channel(s) : 2 channels 
Channel positions : Front: L R 
Sampling rate : 48.0 kHz / 24.0 kHz 
Frame rate : 23.438 FPS (1024 spf) 
Compression mode : Lossy 
Delay relative to video : 40 ms 
Stream size : 56.7 MiB (2%) 
Title : Commentary 
Language : English 
Default : No 
Forced : No 

Text #1 
ID : 4 
Format : VobSub 
Muxing mode : zlib 
Codec ID : S_VOBSUB 
Codec ID/Info : Picture based subtitle format used on DVDs 
Duration : 2 h 0 min 
Bit rate : 14.0 kb/s 
Count of elements : 1906 
Stream size : 12.0 MiB (0%) 
Language : English 
Default : No 
Forced : No 

Text #2 
ID : 5 
Format : VobSub 
Muxing mode : zlib 
Codec ID : S_VOBSUB 
Codec ID/Info : Picture based subtitle format used on DVDs 
Duration : 1 h 52 min 
Bit rate : 9 794 b/s 
Count of elements : 1381 
Stream size : 7.86 MiB (0%) 
Language : German 
Default : No 
Forced : No 

Text #3 
ID : 6 
Format : VobSub 
Muxing mode : zlib 
Codec ID : S_VOBSUB 
Codec ID/Info : Picture based subtitle format used on DVDs 
Duration : 1 h 4 min 
Bit rate : 42 b/s 
Count of elements : 3 
Stream size : 20.1 KiB (0%) 
Title : Forced 
Language : German 
Default : No 
Forced : No 

Text #4 
ID : 7 
Format : VobSub 
Muxing mode : zlib 
Codec ID : S_VOBSUB 
Codec ID/Info : Picture based subtitle format used on DVDs 
Duration : 1 h 54 min 
Bit rate : 10.7 kb/s 
Count of elements : 1399 
Stream size : 8.74 MiB (0%) 
Language : Spanish 
Default : No 
Forced : No 

Menu 
00:00:00.000 : en:Chapter 01 
00:11:48.499 : en:Chapter 02 
00:17:17.036 : en:Chapter 03 
00:24:08.321 : en:Chapter 04 
00:28:03.932 : en:Chapter 05 
00:37:08.851 : en:Chapter 06 
00:40:54.326 : en:Chapter 07 
00:46:31.246 : en:Chapter 08 
00:54:53.790 : en:Chapter 09 
00:59:26.563 : en:Chapter 10 
01:06:09.799 : en:Chapter 11 
01:12:56.747 : en:Chapter 12 
01:23:06.690 : en:Chapter 13 
01:27:24.530 : en:Chapter 14 
01:33:36.569 : en:Chapter 15 
01:45:27.112 : en:Chapter 16

Screencaps

Download

File: Scream 2 1997 (1080p x265 10bit Tigole).mkv (3.6 GB)

Movie: Google Drive

Featurettes: Google Drive

Leave a Reply