Rocket Singh: Salesman of the Year (2009) (1080p BluRay x265 HEVC 10bit AAC 5.1 Hindi Natty)

Info

Plot: Rocket Singh – Salesman of the Year is the sometimes thoughtless, sometimes thoughtful story of a fresh graduate trying to find a balance between the maddening demands of the ‘professional’ way, and the way of his heart – and stumbling upon a crazy way which turned his world upside down, and his career right side up. Welcome to the world of sales boss!

Encode

Source:

Rocket Singh (2009) Untouched BD50 1080p AVC DTS-HDMA 5.1 - DTOne 10th Anniversary | 40 GB | DesiTorrents

Mediainfo

General 
Format : Matroska 
Format version : Version 4 / Version 2 
File size : 4.02 GiB 
Duration : 2 h 34 min 
Overall bit rate : 3 734 kb/s 
Movie name : Rocket Singh: Salesman of the Year (2009) 
Encoded date : UTC 2018-08-23 04:14:13 
Writing application : mkvmerge v25.0.0 ('Prog Noir') 64-bit 
Writing library : libebml v1.3.6 + libmatroska v1.4.9 
Writing frontend : Natty 

Video 
ID : 1 
Format : HEVC 
Format/Info : High Efficiency Video Coding 
Format profile : Main [email protected]@Main 
Codec ID : V_MPEGH/ISO/HEVC 
Duration : 2 h 34 min 
Bit rate : 3 281 kb/s 
Width : 1 920 pixels 
Height : 818 pixels 
Display aspect ratio : 2.35:1 
Frame rate mode : Constant 
Frame rate : 24.000 FPS 
Color space : YUV 
Chroma subsampling : 4:2:0 
Bit depth : 10 bits 
Bits/(Pixel*Frame) : 0.087 
Stream size : 3.53 GiB (88%) 
Writing library : x265 2.8+66-88ee12651e30:[Windows][MSVC 1915][64 bit] 10bit 
Encoding settings : cpuid=1111039 / frame-threads=2 / numa-pools=4 / wpp / no-pmode / no-pme / no-psnr / no-ssim / log-level=2 / input-csp=1 / input-res=1920x818 / interlace=0 / total-frames=221924 / level-idc=0 / high-tier=1 / uhd-bd=0 / ref=5 / no-allow-non-conformance / no-repeat-headers / annexb / no-aud / no-hrd / info / hash=0 / no-temporal-layers / open-gop / min-keyint=24 / keyint=400 / gop-lookahead=0 / bframes=8 / b-adapt=2 / b-pyramid / bframe-bias=0 / rc-lookahead=100 / lookahead-slices=4 / scenecut=40 / radl=0 / no-intra-refresh / ctu=32 / min-cu-size=8 / no-rect / no-amp / max-tu-size=16 / tu-inter-depth=1 / tu-intra-depth=1 / limit-tu=0 / rdoq-level=2 / dynamic-rd=0.00 / no-ssim-rd / signhide / no-tskip / nr-intra=0 / nr-inter=0 / no-constrained-intra / no-strong-intra-smoothing / max-merge=2 / limit-refs=3 / limit-modes / me=3 / subme=5 / merange=57 / temporal-mvp / weightp / weightb / no-analyze-src-pics / deblock=-3:0 / no-sao / no-sao-non-deblock / rd=4 / no-early-skip / rskip / no-fast-intra / no-tskip-fast / no-cu-lossless / no-b-intra / no-splitrd-skip / rdpenalty=0 / psy-rd=2.00 / psy-rdoq=1.00 / no-rd-refine / no-lossless / cbqpoffs=0 / crqpoffs=0 / rc=crf / crf=22.0 / qcomp=0.60 / qpstep=4 / stats-write=0 / stats-read=0 / ipratio=1.40 / pbratio=1.30 / aq-mode=3 / aq-strength=1.00 / cutree / zone-count=0 / no-strict-cbr / qg-size=32 / no-rc-grain / qpmax=69 / qpmin=0 / no-const-vbv / sar=0 / overscan=0 / videoformat=5 / range=0 / colorprim=1 / transfer=1 / colormatrix=1 / chromaloc=0 / display-window=0 / max-cll=0,0 / min-luma=0 / max-luma=1023 / log2-max-poc-lsb=8 / vui-timing-info / vui-hrd-info / slices=1 / no-opt-qp-pps / no-opt-ref-list-length-pps / no-multi-pass-opt-rps / scenecut-bias=0.05 / no-opt-cu-delta-qp / no-aq-motion / no-hdr / no-hdr-opt / no-dhdr10-opt / no-idr-recovery-sei / analysis-reuse-level=8 / scale-factor=0 / refine-intra=0 / refine-inter=0 / refine-mv=0 / no-limit-sao / ctu-info=0 / no-lowpass-dct / refine-mv-type=0 / copy-pic=1 / max-ausize-factor=1.0 / no-dynamic-refine / no-single-sei 
Default : Yes 
Forced : No 
Color range : Limited 
Color primaries : BT.709 
Transfer characteristics : BT.709 
Matrix coefficients : BT.709 

Audio 
ID : 2 
Format : AAC 
Format/Info : Advanced Audio Codec 
Format profile : LC 
Codec ID : A_AAC 
Duration : 2 h 34 min 
Bit rate : 440 kb/s 
Channel(s) : 6 channels 
Channel positions : Front: L C R, Side: L R, LFE 
Sampling rate : 48.0 kHz 
Frame rate : 46.875 FPS (1024 spf) 
Compression mode : Lossy 
Delay relative to video : 20 ms 
Stream size : 486 MiB (12%) 
Language : Hindi 
Default : No 
Forced : No 

Subtitle #1 
ID : 3 
Format : PGS 
Muxing mode : zlib 
Codec ID : S_HDMV/PGS 
Codec ID/Info : Picture based subtitle format used on BDs/HD-DVDs 
Duration : 2 h 26 min 
Bit rate : 32.4 kb/s 
Count of elements : 3832 
Stream size : 34.0 MiB (1%) 
Language : English 
Default : Yes 
Forced : No 

Subtitle #2 
ID : 4 
Format : PGS 
Muxing mode : zlib 
Codec ID : S_HDMV/PGS 
Codec ID/Info : Picture based subtitle format used on BDs/HD-DVDs 
Duration : 2 h 26 min 
Bit rate : 17.9 kb/s 
Count of elements : 3798 
Stream size : 18.8 MiB (0%) 
Language : Arabic 
Default : No 
Forced : No 

Menu 
00:00:00.000 : en:Chapter 01 
00:03:30.291 : en:Chapter 02 
00:09:45.333 : en:Chapter 03 
00:17:49.041 : en:Chapter 04 
00:19:59.791 : en:Chapter 05 
00:26:50.208 : en:Chapter 06 
00:33:53.916 : en:Chapter 07 
00:37:39.166 : en:Chapter 08 
00:45:08.750 : en:Chapter 09 
00:50:50.583 : en:Chapter 10 
00:54:28.583 : en:Chapter 11 
00:59:16.750 : en:Chapter 12 
01:05:27.166 : en:Chapter 13 
01:13:40.625 : en:Chapter 14 
01:18:23.791 : en:Chapter 15 
01:24:44.750 : en:Chapter 16 
01:30:18.625 : en:Chapter 17 
01:33:30.333 : en:Chapter 18 
01:36:41.833 : en:Chapter 19 
01:40:18.250 : en:Chapter 20 
01:43:57.583 : en:Chapter 21 
01:53:47.250 : en:Chapter 22 
02:01:06.166 : en:Chapter 23 
02:08:38.083 : en:Chapter 24 
02:12:22.375 : en:Chapter 25 
02:16:36.250 : en:Chapter 26 
02:20:56.625 : en:Chapter 27 
02:29:02.500 : en:Chapter 28

Download

File: Rocket Singh – Salesman of the Year (2009) (1080p BluRay x265 Natty).mkv (4.0 GB)

Movie: Google Drive

Leave a Reply