Rang De Basanti (2006) (1080p BluRay x265 HEVC 10bit AAC 5.1 Hindi Natty)

Info

Plot: The story of six young Indians who assist an English Woman to film a documentary on the extremist freedom fighters from their past, and the events that lead them to relive the long forgotten saga of freedom.

Encode

Source:

Rang.De.Basanti.•.2006.•.BD50.•.Untouched.BluRay.•.2.Disk.Set.•.DRs | 60 GB | Hon3yHD

Mediainfo

General 
Format : Matroska 
Format version : Version 4 / Version 2 
File size : 4.32 GiB 
Duration : 2 h 46 min 
Overall bit rate : 3 713 kb/s 
Movie name : Rang De Basanti (2007) 
Encoded date : UTC 2018-10-20 10:54:37 
Writing application : mkvmerge v27.0.0 ('Metropolis') 64-bit 
Writing library : libebml v1.3.6 + libmatroska v1.4.9 
Cover : Yes 
Attachments : cover.jpg 
Writing frontend : Natty 

Video 
ID : 1 
Format : HEVC 
Format/Info : High Efficiency Video Coding 
Format profile : Main [email protected]@Main 
Codec ID : V_MPEGH/ISO/HEVC 
Duration : 2 h 46 min 
Bit rate : 3 189 kb/s 
Width : 1 920 pixels 
Height : 816 pixels 
Display aspect ratio : 2.35:1 
Frame rate mode : Constant 
Frame rate : 24.000 FPS 
Color space : YUV 
Chroma subsampling : 4:2:0 
Bit depth : 10 bits 
Bits/(Pixel*Frame) : 0.085 
Stream size : 3.71 GiB (86%) 
Writing library : x265 2.9+2-7e978ed93d60:[Windows][MSVC 1915][64 bit] 10bit 
Encoding settings : cpuid=1111039 / frame-threads=2 / numa-pools=4 / wpp / no-pmode / no-pme / no-psnr / no-ssim / log-level=2 / input-csp=1 / input-res=1920x816 / interlace=0 / total-frames=117350 / level-idc=0 / high-tier=1 / uhd-bd=0 / ref=5 / no-allow-non-conformance / no-repeat-headers / annexb / no-aud / no-hrd / info / hash=0 / no-temporal-layers / open-gop / min-keyint=24 / keyint=400 / gop-lookahead=0 / bframes=8 / b-adapt=2 / b-pyramid / bframe-bias=0 / rc-lookahead=80 / lookahead-slices=4 / scenecut=40 / radl=0 / no-intra-refresh / ctu=32 / min-cu-size=8 / no-rect / no-amp / max-tu-size=16 / tu-inter-depth=1 / tu-intra-depth=1 / limit-tu=0 / rdoq-level=2 / dynamic-rd=0.00 / no-ssim-rd / signhide / no-tskip / nr-intra=0 / nr-inter=0 / no-constrained-intra / no-strong-intra-smoothing / max-merge=2 / limit-refs=3 / limit-modes / me=3 / subme=5 / merange=57 / temporal-mvp / weightp / weightb / no-analyze-src-pics / deblock=-3:0 / no-sao / no-sao-non-deblock / rd=4 / no-early-skip / rskip / no-fast-intra / no-tskip-fast / no-cu-lossless / b-intra / no-splitrd-skip / rdpenalty=0 / psy-rd=2.00 / psy-rdoq=1.00 / no-rd-refine / no-lossless / cbqpoffs=0 / crqpoffs=0 / rc=crf / crf=22.0 / qcomp=0.50 / qpstep=4 / stats-write=0 / stats-read=0 / ipratio=1.40 / pbratio=1.30 / aq-mode=3 / aq-strength=0.90 / cutree / zone-count=0 / no-strict-cbr / qg-size=32 / no-rc-grain / qpmax=69 / qpmin=0 / no-const-vbv / sar=0 / overscan=0 / videoformat=5 / range=0 / colorprim=1 / transfer=1 / colormatrix=1 / chromaloc=0 / display-window=0 / max-cll=0,0 / min-luma=0 / max-luma=1023 / log2-max-poc-lsb=8 / vui-timing-info / vui-hrd-info / slices=1 / no-opt-qp-pps / no-opt-ref-list-length-pps / no-multi-pass-opt-rps / scenecut-bias=0.05 / no-opt-cu-delta-qp / no-aq-motion / no-hdr / no-hdr-opt / no-dhdr10-opt / no-idr-recovery-sei / analysis-reuse-level=8 / scale-factor=0 / refine-intra=0 / refine-inter=0 / refine-mv=0 / no-limit-sao / ctu-info=0 / no-lowpass-dct / refine-mv-type=0 / copy-pic=1 / max-ausize-factor=1.0 / no-dynamic-refine / no-single-sei 
Default : Yes 
Forced : No 
Color range : Limited 
Color primaries : BT.709 
Transfer characteristics : BT.709 
Matrix coefficients : BT.709 

Audio #1 
ID : 2 
Format : AAC 
Format/Info : Advanced Audio Codec 
Format profile : LC 
Codec ID : A_AAC 
Duration : 2 h 46 min 
Bit rate : 459 kb/s 
Channel(s) : 6 channels 
Channel positions : Front: L C R, Side: L R, LFE 
Sampling rate : 48.0 kHz 
Frame rate : 46.875 FPS (1024 spf) 
Compression mode : Lossy 
Delay relative to video : 20 ms 
Stream size : 547 MiB (12%) 
Language : Hindi 
Default : Yes 
Forced : No 

Audio #2 
ID : 3 
Format : AAC 
Format/Info : Advanced Audio Codec 
Format profile : HE-AAC / LC 
Codec ID : A_AAC 
Duration : 2 h 46 min 
Bit rate : 55.7 kb/s 
Channel(s) : 2 channels 
Channel positions : Front: L R 
Sampling rate : 48.0 kHz / 24.0 kHz 
Frame rate : 23.438 FPS (1024 spf) 
Compression mode : Lossy 
Delay relative to video : 40 ms 
Stream size : 66.4 MiB (2%) 
Language : English 
Default : No 
Forced : No 

Subtitle 
ID : 4 
Format : PGS 
Muxing mode : zlib 
Codec ID : S_HDMV/PGS 
Codec ID/Info : Picture based subtitle format used on BDs/HD-DVDs 
Duration : 2 h 41 min 
Bit rate : 19.9 kb/s 
Count of elements : 2689 
Stream size : 23.0 MiB (1%) 
Language : English 
Default : No 
Forced : No 

Menu 
00:00:00.000 : en:Chapter 00 
00:08:13.666 : en:Chapter 01 
00:15:48.791 : en:Chapter 02 
00:20:36.208 : en:Chapter 03 
00:25:33.875 : en:Chapter 04 
00:31:38.875 : en:Chapter 05 
00:43:04.916 : en:Chapter 06 
00:44:30.958 : en:Chapter 07 
00:47:56.750 : en:Chapter 08 
00:56:05.708 : en:Chapter 09 
00:57:31.750 : en:Chapter 10 
01:03:12.083 : en:Chapter 11 
01:08:10.291 : en:Chapter 12 
01:14:14.875 : en:Chapter 13 
01:17:48.833 : en:Chapter 14 
01:21:29.639 : en:Chapter 01 
01:27:42.681 : en:Chapter 02 
01:34:39.931 : en:Chapter 03 
01:37:08.473 : en:Chapter 04 
01:40:10.681 : en:Chapter 05 
01:43:54.223 : en:Chapter 06 
01:45:54.264 : en:Chapter 07 
01:50:26.014 : en:Chapter 08 
01:53:58.723 : en:Chapter 09 
01:56:56.973 : en:Chapter 10 
02:06:20.098 : en:Chapter 11 
02:12:37.556 : en:Chapter 12 
02:22:30.639 : en:Chapter 13 
02:24:57.098 : en:Chapter 14 
02:27:37.139 : en:Chapter 15 
02:40:57.473 : en:Chapter 16

Download

File: Rang De Basanti (2006) (1080p BluRay x265 Natty).mkv (4.3 GB)

Movie: Google Drive

Leave a Reply