Raid (2018) (1080p BluRay x265 HEVC 10bit AAC 5.1 Hindi Natty)

Info

Plot: Set in the 80s in Uttar Pradesh, India, Raid is based on the true story of one of the most high profile raids the country has ever known. Amay Patnaik (Ajay Devgn), an upright and no-nonsense Income Tax officer has already been transferred 49 times in the past seven years owing to his idealistic and courageous disposition to uncover tax frauds, hitting hard the pockets of many a big shot. When Patnaik is assigned the case of Tauji, a highly influential and feared man in Uttar Pradesh, little does he know that his unerring determination to bring Tauji to justice would culminate in the longest and most challenging raid of his career as also the history of the Income Tax Department of India. Would Amay succeed in the face of an increasingly stubborn and belligerent Tauji forms the crux of the story.

Encode

Source:

Raid 2018 Hindi 1080p BluRay AVC DTS-HD MA 5.1 - xRG | 35 GB | NbTorrents

Mediainfo

General 
Format : Matroska 
Format version : Version 4 / Version 2 
File size : 2.10 GiB 
Duration : 2 h 0 min 
Overall bit rate : 2 486 kb/s 
Movie name : Raid 2018 
Encoded date : UTC 2018-10-13 21:02:16 
Writing application : mkvmerge v27.0.0 ('Metropolis') 64-bit 
Writing library : libebml v1.3.6 + libmatroska v1.4.9 
Writing frontend : Natty 

Video 
ID : 1 
Format : HEVC 
Format/Info : High Efficiency Video Coding 
Format profile : Main [email protected]@Main 
Codec ID : V_MPEGH/ISO/HEVC 
Duration : 2 h 0 min 
Bit rate : 1 986 kb/s 
Width : 1 920 pixels 
Height : 808 pixels 
Display aspect ratio : 2.40:1 
Frame rate mode : Constant 
Frame rate : 24.000 FPS 
Color space : YUV 
Chroma subsampling : 4:2:0 
Bit depth : 10 bits 
Bits/(Pixel*Frame) : 0.053 
Stream size : 1.68 GiB (80%) 
Writing library : x265 2.9+1-169e76b6bbcc:[Windows][MSVC 1915][64 bit] 10bit 
Encoding settings : cpuid=1111039 / frame-threads=2 / numa-pools=4 / wpp / no-pmode / no-pme / no-psnr / no-ssim / log-level=2 / input-csp=1 / input-res=1920x808 / interlace=0 / total-frames=174178 / level-idc=0 / high-tier=1 / uhd-bd=0 / ref=5 / no-allow-non-conformance / no-repeat-headers / annexb / no-aud / no-hrd / info / hash=0 / no-temporal-layers / open-gop / min-keyint=24 / keyint=400 / gop-lookahead=0 / bframes=8 / b-adapt=2 / b-pyramid / bframe-bias=0 / rc-lookahead=80 / lookahead-slices=4 / scenecut=40 / radl=0 / no-intra-refresh / ctu=32 / min-cu-size=8 / no-rect / no-amp / max-tu-size=16 / tu-inter-depth=1 / tu-intra-depth=1 / limit-tu=0 / rdoq-level=2 / dynamic-rd=0.00 / no-ssim-rd / signhide / no-tskip / nr-intra=0 / nr-inter=0 / no-constrained-intra / no-strong-intra-smoothing / max-merge=2 / limit-refs=3 / limit-modes / me=3 / subme=5 / merange=57 / temporal-mvp / weightp / weightb / no-analyze-src-pics / deblock=-3:0 / no-sao / no-sao-non-deblock / rd=4 / no-early-skip / rskip / no-fast-intra / no-tskip-fast / no-cu-lossless / b-intra / no-splitrd-skip / rdpenalty=0 / psy-rd=2.00 / psy-rdoq=0.50 / no-rd-refine / no-lossless / cbqpoffs=0 / crqpoffs=0 / rc=crf / crf=22.0 / qcomp=0.50 / qpstep=4 / stats-write=0 / stats-read=0 / ipratio=1.40 / pbratio=1.30 / aq-mode=3 / aq-strength=0.90 / cutree / zone-count=0 / no-strict-cbr / qg-size=32 / no-rc-grain / qpmax=69 / qpmin=0 / no-const-vbv / sar=0 / overscan=0 / videoformat=5 / range=0 / colorprim=1 / transfer=1 / colormatrix=1 / chromaloc=0 / display-window=0 / max-cll=0,0 / min-luma=0 / max-luma=1023 / log2-max-poc-lsb=8 / vui-timing-info / vui-hrd-info / slices=1 / no-opt-qp-pps / no-opt-ref-list-length-pps / no-multi-pass-opt-rps / scenecut-bias=0.05 / no-opt-cu-delta-qp / no-aq-motion / no-hdr / no-hdr-opt / no-dhdr10-opt / no-idr-recovery-sei / analysis-reuse-level=8 / scale-factor=0 / refine-intra=0 / refine-inter=0 / refine-mv=0 / no-limit-sao / ctu-info=0 / no-lowpass-dct / refine-mv-type=0 / copy-pic=1 / max-ausize-factor=1.0 / no-dynamic-refine / no-single-sei 
Default : Yes 
Forced : No 
Color range : Limited 
Color primaries : BT.709 
Transfer characteristics : BT.709 
Matrix coefficients : BT.709 

Audio 
ID : 2 
Format : AAC 
Format/Info : Advanced Audio Codec 
Format profile : LC 
Codec ID : A_AAC 
Duration : 2 h 0 min 
Bit rate : 478 kb/s 
Channel(s) : 6 channels 
Channel positions : Front: L C R, Side: L R, LFE 
Sampling rate : 48.0 kHz 
Frame rate : 46.875 FPS (1024 spf) 
Compression mode : Lossy 
Delay relative to video : 20 ms 
Stream size : 414 MiB (19%) 
Language : Hindi 
Default : No 
Forced : No 

Subtitle #1 
ID : 3 
Format : PGS 
Muxing mode : zlib 
Codec ID : S_HDMV/PGS 
Codec ID/Info : Picture based subtitle format used on BDs/HD-DVDs 
Duration : 1 h 57 min 
Bit rate : 29.2 kb/s 
Count of elements : 2782 
Stream size : 24.5 MiB (1%) 
Language : English 
Default : Yes 
Forced : No 

Subtitle #2 
ID : 4 
Format : PGS 
Muxing mode : zlib 
Codec ID : S_HDMV/PGS 
Codec ID/Info : Picture based subtitle format used on BDs/HD-DVDs 
Duration : 1 h 53 min 
Bit rate : 17.4 kb/s 
Count of elements : 2772 
Stream size : 14.1 MiB (1%) 
Language : Arabic 
Default : No 
Forced : No 

Menu 
00:00:00.000 : en:Chapter 01 
00:06:57.500 : en:Chapter 02 
00:11:11.500 : en:Chapter 03 
00:15:37.500 : en:Chapter 04 
00:27:43.500 : en:Chapter 05 
00:50:25.500 : en:Chapter 06 
00:53:03.000 : en:Chapter 07 
01:01:39.000 : en:Chapter 08 
01:12:07.500 : en:Chapter 09 
01:17:37.000 : en:Chapter 10 
01:22:29.500 : en:Chapter 11 
01:25:33.000 : en:Chapter 12 
01:31:04.000 : en:Chapter 13 
01:39:54.000 : en:Chapter 14 
01:49:06.500 : en:Chapter 15 
01:55:01.000 : en:Chapter 16

Download

File: Raid (2018) (1080p BluRay x265 Natty).mkv (2.1 GB)

Movie: Google Drive

Leave a Reply