Pirates of the Caribbean: Dead Men Tell No Tales 2017 (1080p Bluray x265 HEVC 10bit AAC 7.1 Tigole)

Info

Plot: Captain Jack Sparrow searches for the trident of Poseidon while being pursued by an undead sea captain and his crew.

Encode

Pirates of the Caribbean: Dead Men Tell No Tales 2017 in 1080p, encoded with x265 in HEVC and AAC 7.1 English, with subtitles!
Encoded using the time consuming 2 pass, 10 bit color at 5000 kbps, from a Blu-ray source, for the highest quality possible.

Source:
Release : Pirates.of.the.Caribbean.Dead.Men.Tell.No.Tales.2017.COMPLETE.BLURAY-PCH 
Complete name : Pirates_of_the_Caribbean_Dead_Men_Tell_No_Tales_t39.mkv 
File size : 31.8 GiB 
Duration : 2 h 9 min 
Overall bit rate mode : Variable 
Overall bit rate : 35.2 Mb/s

Mediainfo

General 
Format : Matroska 
Format version : Version 4 / Version 2 
File size : 5.13 GiB 
Duration : 2 h 9 min 
Overall bit rate : 5 690 kb/s 
Movie name : Pirates of the Caribbean: Dead Men Tell No Tales 
Encoded date : UTC 2017-09-14 00:23:50 
Writing application : mkvmerge v14.0.0 ('Flow') 64bit 
Writing library : libebml v1.3.4 + libmatroska v1.4.5 

Video 
ID : 1 
Format : HEVC 
Format/Info : High Efficiency Video Coding 
Format profile : Main [email protected]@Main 
Codec ID : V_MPEGH/ISO/HEVC 
Duration : 2 h 9 min 
Bit rate : 5 000 kb/s 
Width : 1 920 pixels 
Height : 800 pixels 
Display aspect ratio : 2.40:1 
Frame rate mode : Constant 
Frame rate : 23.976 (24000/1001) FPS 
Color space : YUV 
Chroma subsampling : 4:2:0 
Bit depth : 10 bits 
Bits/(Pixel*Frame) : 0.136 
Stream size : 4.51 GiB (88%) 
Writing library : x265 2.5+14-2718cb5dd67f:[Windows][GCC 7.1.0][64 bit] 10bit 
Encoding settings : cpuid=1173503 / frame-threads=3 / numa-pools=8 / wpp / no-pmode / no-pme / no-psnr / no-ssim / log-level=2 / input-csp=1 / input-res=1920x800 / interlace=0 / total-frames=185748 / level-idc=0 / high-tier=1 / uhd-bd=0 / ref=4 / no-allow-non-conformance / no-repeat-headers / annexb / no-aud / no-hrd / info / hash=0 / no-temporal-layers / open-gop / min-keyint=23 / keyint=250 / bframes=4 / b-adapt=2 / b-pyramid / bframe-bias=0 / rc-lookahead=25 / lookahead-slices=4 / scenecut=40 / no-intra-refresh / ctu=64 / min-cu-size=8 / rect / no-amp / max-tu-size=32 / tu-inter-depth=1 / tu-intra-depth=1 / limit-tu=0 / rdoq-level=2 / dynamic-rd=0.00 / no-ssim-rd / signhide / no-tskip / nr-intra=0 / nr-inter=0 / no-constrained-intra / strong-intra-smoothing / max-merge=3 / limit-refs=3 / limit-modes / me=3 / subme=3 / merange=57 / temporal-mvp / weightp / no-weightb / no-analyze-src-pics / deblock=0:0 / sao / no-sao-non-deblock / rd=4 / no-early-skip / rskip / no-fast-intra / no-tskip-fast / no-cu-lossless / no-b-intra / no-splitrd-skip / rdpenalty=0 / psy-rd=2.00 / psy-rdoq=1.00 / no-rd-refine / analysis-reuse-mode=0 / no-lossless / cbqpoffs=0 / crqpoffs=0 / rc=abr / bitrate=5000 / qcomp=0.60 / qpstep=4 / stats-write=0 / stats-read=2 / cplxblur=20.0 / qblur=0.5 / ipratio=1.40 / pbratio=1.30 / aq-mode=3 / aq-strength=1.00 / cutree / zone-count=0 / no-strict-cbr / qg-size=32 / no-rc-grain / qpmax=69 / qpmin=0 / no-const-vbv / sar=0 / overscan=0 / videoformat=5 / range=0 / colorprim=2 / transfer=2 / colormatrix=2 / chromaloc=0 / display-window=0 / max-cll=0,0 / min-luma=0 / max-luma=1023 / log2-max-poc-lsb=8 / vui-timing-info / vui-hrd-info / slices=1 / opt-qp-pps / opt-ref-list-length-pps / no-multi-pass-opt-rps / scenecut-bias=0.05 / no-opt-cu-delta-qp / aq-motion / no-hdr / no-hdr-opt / no-dhdr10-opt / analysis-reuse-level=5 / scale-factor=0 / refine-intra=0 / refine-inter=0 / refine-mv=0 / no-limit-sao / ctu-info=0 
Default : Yes 
Forced : No 

Audio 
ID : 2 
Format : AAC 
Format/Info : Advanced Audio Codec 
Format profile : LC 
Codec ID : A_AAC 
Duration : 2 h 9 min 
Bit rate : 662 kb/s 
Channel(s) : 8 channels 
Channel positions : Front: L C R, Side: 4, LFE 
Sampling rate : 48.0 kHz 
Frame rate : 46.875 FPS (1024 spf) 
Compression mode : Lossy 
Delay relative to video : 20 ms 
Stream size : 618 MiB (12%) 
Language : English 
Default : Yes 
Forced : No 

Text #1 
ID : 3 
Format : VobSub 
Muxing mode : zlib 
Codec ID : S_VOBSUB 
Codec ID/Info : Picture based subtitle format used on DVDs 
Duration : 2 h 7 min 
Bit rate : 9 041 b/s 
Count of elements : 1772 
Stream size : 8.27 MiB (0%) 
Language : English 
Default : No 
Forced : No 

Text #2 
ID : 4 
Format : VobSub 
Muxing mode : zlib 
Codec ID : S_VOBSUB 
Codec ID/Info : Picture based subtitle format used on DVDs 
Duration : 1 h 59 min 
Bit rate : 5 615 b/s 
Count of elements : 1494 
Stream size : 4.81 MiB (0%) 
Language : Chinese 
Default : No 
Forced : No 

Text #3 
ID : 5 
Format : VobSub 
Muxing mode : zlib 
Codec ID : S_VOBSUB 
Codec ID/Info : Picture based subtitle format used on DVDs 
Duration : 1 h 59 min 
Bit rate : 4 885 b/s 
Count of elements : 1317 
Stream size : 4.17 MiB (0%) 
Language : Korean 
Default : No 
Forced : No 

Text #4 
ID : 6 
Format : VobSub 
Muxing mode : zlib 
Codec ID : S_VOBSUB 
Codec ID/Info : Picture based subtitle format used on DVDs 
Duration : 1 h 59 min 
Bit rate : 7 535 b/s 
Count of elements : 1319 
Stream size : 6.43 MiB (0%) 
Language : Russian 
Default : No 
Forced : No 

Menu 
00:00:00.000 : en:Chapter 01 
00:05:49.515 : en:Chapter 02 
00:08:34.222 : en:Chapter 03 
00:13:40.820 : en:Chapter 04 
00:16:29.154 : en:Chapter 05 
00:22:33.852 : en:Chapter 06 
00:25:19.267 : en:Chapter 07 
00:28:06.101 : en:Chapter 08 
00:31:41.774 : en:Chapter 09 
00:33:44.814 : en:Chapter 10 
00:37:02.053 : en:Chapter 11 
00:42:27.711 : en:Chapter 12 
00:49:09.071 : en:Chapter 13 
00:54:00.278 : en:Chapter 14 
00:57:19.394 : en:Chapter 15 
01:00:38.718 : en:Chapter 16 
01:08:29.939 : en:Chapter 17 
01:11:57.021 : en:Chapter 18 
01:16:50.939 : en:Chapter 19 
01:19:27.471 : en:Chapter 20 
01:25:04.808 : en:Chapter 21 
01:27:42.173 : en:Chapter 22 
01:31:43.789 : en:Chapter 23 
01:38:22.813 : en:Chapter 24 
01:42:36.775 : en:Chapter 25 
01:47:23.562 : en:Chapter 26 
01:52:58.688 : en:Chapter 27 
01:59:09.934 : en:Chapter 28

Screencaps

Download

File: Pirates of the Caribbean – Dead Men Tell No Tales 2017 (1080p x265 10bit Tigole).mkv (5.1 GB)

Movie: Google Drive

Featurettes: Google Drive

2 thoughts on “Pirates of the Caribbean: Dead Men Tell No Tales 2017 (1080p Bluray x265 HEVC 10bit AAC 7.1 Tigole)

Leave a Reply