Pirates of the Caribbean: On Stranger Tides 2011 (1080p Bluray x265 HEVC 10bit AAC 7.1 Tigole)

Info

Plot: Jack Sparrow and Barbossa embark on a quest to find the elusive fountain of youth, only to discover that Blackbeard and his daughter are after it too.

Mediainfo

General
Format                                   : Matroska
Format version                           : Version 4 / Version 2
File size                                : 2.90 GiB
Duration                                 : 2 h 16 min
Overall bit rate                         : 3 045 kb/s
Movie name                               : Pirates of the Caribbean: On Stranger Tides
Encoded date                             : UTC 2016-10-13 17:10:44
Writing application                      : mkvmerge v9.2.0 ('Photograph') 64bit
Writing library                          : libebml v1.3.3 + libmatroska v1.4.4

Video
ID                                       : 1
Format                                   : HEVC
Format/Info                              : High Efficiency Video Coding
Format profile                           : Main [email protected]@Main
Codec ID                                 : V_MPEGH/ISO/HEVC
Duration                                 : 2 h 16 min
Bit rate                                 : 2 493 kb/s
Width                                    : 1 920 pixels
Height                                   : 800 pixels
Display aspect ratio                     : 2.40:1
Frame rate mode                          : Constant
Frame rate                               : 23.976 (24000/1001) FPS
Color space                              : YUV
Chroma subsampling                       : 4:2:0
Bit depth                                : 10 bits
Bits/(Pixel*Frame)                       : 0.068
Stream size                              : 2.38 GiB (82%)
Writing library                          : x265 2.1+2-c0d91c2b4048:[Windows][GCC 6.2.0][64 bit] 10bit
Encoding settings                        : wpp / ctu=64 / min-cu-size=8 / max-tu-size=32 / tu-intra-depth=1 / tu-inter-depth=1 / me=1 / subme=2 / merange=57 / no-rect / no-amp / max-merge=2 / temporal-mvp / no-early-skip / rskip / rdpenalty=0 / no-tskip / no-tskip-fast / strong-intra-smoothing / no-lossless / no-cu-lossless / no-constrained-intra / no-fast-intra / open-gop / no-temporal-layers / interlace=0 / keyint=250 / min-keyint=23 / scenecut=40 / rc-lookahead=20 / lookahead-slices=5 / bframes=4 / bframe-bias=0 / b-adapt=2 / ref=3 / limit-refs=3 / no-limit-modes / weightp / no-weightb / aq-mode=2 / qg-size=32 / aq-strength=1.00 / cbqpoffs=0 / crqpoffs=0 / rd=3 / psy-rd=2.00 / rdoq-level=0 / psy-rdoq=0.00 / log2-max-poc-lsb=8 / no-rd-refine / signhide / deblock=0:0 / sao / no-sao-non-deblock / b-pyramid / cutree / no-intra-refresh / rc=2 / pass / bitrate=2493 / qcomp=0.60 / qpmin=0 / qpmax=69 / qpstep=4 / cplxblur=20.0 / qblur=0.5 / ipratio=1.40 / pbratio=1.30
Default                                  : Yes
Forced                                   : No

Audio #1
ID                                       : 2
Format                                   : AAC
Format/Info                              : Advanced Audio Codec
Format profile                           : LC
Codec ID                                 : A_AAC
Duration                                 : 2 h 16 min
Bit rate                                 : 419 kb/s
Channel(s)                               : 8 channels
Channel positions                        : Front: L C R, Side: L R, Back: L R, LFE
Sampling rate                            : 48.0 kHz
Frame rate                               : 46.875 FPS (1024 spf)
Compression mode                         : Lossy
Delay relative to video                  : 20 ms
Stream size                              : 409 MiB (14%)
Language                                 : English
Default                                  : Yes
Forced                                   : No

Audio #2
ID                                       : 3
Format                                   : AAC
Format/Info                              : Advanced Audio Codec
Format profile                           : HE-AAC / LC
Codec ID                                 : A_AAC
Duration                                 : 2 h 16 min
Bit rate                                 : 66.2 kb/s
Channel(s)                               : 2 channels
Channel positions                        : Front: L R
Sampling rate                            : 48.0 kHz / 24.0 kHz
Frame rate                               : 23.438 FPS (1024 spf)
Compression mode                         : Lossy
Delay relative to video                  : 40 ms
Stream size                              : 64.3 MiB (2%)
Title                                    : Commentary
Language                                 : English
Default                                  : No
Forced                                   : No

Text #1
ID                                       : 4
Format                                   : VobSub
Muxing mode                              : zlib
Codec ID                                 : S_VOBSUB
Codec ID/Info                            : Picture based subtitle format used on DVDs
Duration                                 : 2 h 16 min
Bit rate                                 : 4 587 b/s
Count of elements                        : 1534
Stream size                              : 4.47 MiB (0%)
Language                                 : English
Default                                  : No
Forced                                   : No

Text #2
ID                                       : 5
Format                                   : VobSub
Muxing mode                              : zlib
Codec ID                                 : S_VOBSUB
Codec ID/Info                            : Picture based subtitle format used on DVDs
Duration                                 : 2 h 14 min
Bit rate                                 : 3 638 b/s
Count of elements                        : 1261
Stream size                              : 3.50 MiB (0%)
Language                                 : German
Default                                  : No
Forced                                   : No

Text #3
ID                                       : 6
Format                                   : VobSub
Muxing mode                              : zlib
Codec ID                                 : S_VOBSUB
Codec ID/Info                            : Picture based subtitle format used on DVDs
Duration                                 : 2 h 9 min
Bit rate                                 : 8 976 b/s
Count of elements                        : 2163
Stream size                              : 8.30 MiB (0%)
Title                                    : Commentary
Language                                 : German
Default                                  : No
Forced                                   : No

Text #4
ID                                       : 7
Format                                   : VobSub
Muxing mode                              : zlib
Codec ID                                 : S_VOBSUB
Codec ID/Info                            : Picture based subtitle format used on DVDs
Duration                                 : 2 h 6 min
Bit rate                                 : 11 b/s
Count of elements                        : 3
Stream size                              : 10.8 KiB (0%)
Title                                    : Forced
Language                                 : German
Default                                  : No
Forced                                   : No

Text #5
ID                                       : 8
Format                                   : VobSub
Muxing mode                              : zlib
Codec ID                                 : S_VOBSUB
Codec ID/Info                            : Picture based subtitle format used on DVDs
Duration                                 : 2 h 6 min
Bit rate                                 : 4 119 b/s
Count of elements                        : 1278
Stream size                              : 3.74 MiB (0%)
Language                                 : Turkish
Default                                  : No
Forced                                   : No

Text #6
ID                                       : 9
Format                                   : VobSub
Muxing mode                              : zlib
Codec ID                                 : S_VOBSUB
Codec ID/Info                            : Picture based subtitle format used on DVDs
Duration                                 : 2 h 9 min
Bit rate                                 : 8 577 b/s
Count of elements                        : 2178
Stream size                              : 7.93 MiB (0%)
Title                                    : Commentary
Language                                 : Turkish
Default                                  : No
Forced                                   : No

Text #7
ID                                       : 10
Format                                   : VobSub
Muxing mode                              : zlib
Codec ID                                 : S_VOBSUB
Codec ID/Info                            : Picture based subtitle format used on DVDs
Duration                                 : 2 h 6 min
Bit rate                                 : 4 165 b/s
Count of elements                        : 1340
Stream size                              : 3.78 MiB (0%)
Language                                 : Serbian
Default                                  : No
Forced                                   : No

Text #8
ID                                       : 11
Format                                   : VobSub
Muxing mode                              : zlib
Codec ID                                 : S_VOBSUB
Codec ID/Info                            : Picture based subtitle format used on DVDs
Duration                                 : 2 h 9 min
Bit rate                                 : 9 064 b/s
Count of elements                        : 2175
Stream size                              : 8.38 MiB (0%)
Title                                    : Commentary
Language                                 : Serbian
Default                                  : No
Forced                                   : No

Text #9
ID                                       : 12
Format                                   : VobSub
Muxing mode                              : zlib
Codec ID                                 : S_VOBSUB
Codec ID/Info                            : Picture based subtitle format used on DVDs
Duration                                 : 2 h 6 min
Bit rate                                 : 3 526 b/s
Count of elements                        : 1294
Stream size                              : 3.20 MiB (0%)
Language                                 : Croatian
Default                                  : No
Forced                                   : No

Text #10
ID                                       : 13
Format                                   : VobSub
Muxing mode                              : zlib
Codec ID                                 : S_VOBSUB
Codec ID/Info                            : Picture based subtitle format used on DVDs
Duration                                 : 2 h 9 min
Bit rate                                 : 8 720 b/s
Count of elements                        : 2175
Stream size                              : 8.06 MiB (0%)
Title                                    : Commentary
Language                                 : Croatian
Default                                  : No
Forced                                   : No

Text #11
ID                                       : 14
Format                                   : VobSub
Muxing mode                              : zlib
Codec ID                                 : S_VOBSUB
Codec ID/Info                            : Picture based subtitle format used on DVDs
Duration                                 : 2 h 6 min
Bit rate                                 : 3 386 b/s
Count of elements                        : 1260
Stream size                              : 3.07 MiB (0%)
Language                                 : Slovenian
Default                                  : No
Forced                                   : No

Text #12
ID                                       : 15
Format                                   : VobSub
Muxing mode                              : zlib
Codec ID                                 : S_VOBSUB
Codec ID/Info                            : Picture based subtitle format used on DVDs
Duration                                 : 2 h 9 min
Bit rate                                 : 7 436 b/s
Count of elements                        : 2170
Stream size                              : 6.87 MiB (0%)
Title                                    : Commentary
Language                                 : Slovenian
Default                                  : No
Forced                                   : No

Menu
00:00:00.000                             : en:Chapter 01
00:03:34.172                             : en:Chapter 02
00:08:46.776                             : en:Chapter 03
00:15:56.080                             : en:Chapter 04
00:18:34.154                             : en:Chapter 05
00:21:15.315                             : en:Chapter 06
00:30:05.512                             : en:Chapter 07
00:36:56.756                             : en:Chapter 08
00:42:05.356                             : en:Chapter 09
00:48:20.022                             : en:Chapter 10
00:53:26.077                             : en:Chapter 11
00:55:42.964                             : en:Chapter 12
00:57:52.844                             : en:Chapter 13
01:00:47.477                             : en:Chapter 14
01:08:22.223                             : en:Chapter 15
01:11:41.338                             : en:Chapter 16
01:13:03.170                             : en:Chapter 17
01:14:16.743                             : en:Chapter 18
01:23:19.995                             : en:Chapter 19
01:26:49.621                             : en:Chapter 20
01:30:16.494                             : en:Chapter 21
01:35:43.738                             : en:Chapter 22
01:40:57.926                             : en:Chapter 23
01:43:07.556                             : en:Chapter 24
01:44:51.660                             : en:Chapter 25
01:48:53.610                             : en:Chapter 26
01:57:41.471                             : en:Chapter 27
02:02:21.375                             : en:Chapter 28
02:05:51.460                             : en:Chapter 29
02:07:26.805                             : en:Chapter 30

Download

File: Pirates of the Caribbean – On Stranger Tides 2011 (1080p x265 10bit Tigole).mkv (2.9 GB)

Movie: Google Drive

Featurettes: Google Drive

3 thoughts on “Pirates of the Caribbean: On Stranger Tides 2011 (1080p Bluray x265 HEVC 10bit AAC 7.1 Tigole)

Leave a Reply