Pirates of the Caribbean: At World’s End 2007 (1080p Bluray x265 HEVC 10bit AAC 5.1 Tigole)

Info

Plot: Captain Barbossa, Will Turner and Elizabeth Swann must sail off the edge of the map, navigate treachery and betrayal, find Jack Sparrow, and make their final alliances for one last decisive.

Mediainfo

General
Format version                           : Version 4 / Version 2
File size                                : 3.34 GiB
Duration                                 : 2 h 48 min
Overall bit rate                         : 2 834 kb/s
Encoded date                             : UTC 2016-10-13 22:41:05
Writing application                      : mkvmerge v9.2.0 ('Photograph') 64bit
Writing library                          : libebml v1.3.3 + libmatroska v1.4.4

Video
ID                                       : 1
Format                                   : HEVC
Format/Info                              : High Efficiency Video Coding
Format profile                           : Main [email protected]@Main
Codec ID                                 : V_MPEGH/ISO/HEVC
Duration                                 : 2 h 48 min
Bit rate                                 : 2 470 kb/s
Width                                    : 1 920 pixels
Height                                   : 800 pixels
Display aspect ratio                     : 2.40:1
Frame rate mode                          : Constant
Frame rate                               : 23.976 (24000/1001) FPS
Color space                              : YUV
Chroma subsampling                       : 4:2:0
Bit depth                                : 10 bits
Bits/(Pixel*Frame)                       : 0.067
Stream size                              : 2.91 GiB (87%)
Writing library                          : x265 2.1+2-c0d91c2b4048:[Windows][GCC 6.2.0][64 bit] 10bit
Encoding settings                        : wpp / ctu=64 / min-cu-size=8 / max-tu-size=32 / tu-intra-depth=1 / tu-inter-depth=1 / me=1 / subme=2 / merange=57 / no-rect / no-amp / max-merge=2 / temporal-mvp / no-early-skip / rskip / rdpenalty=0 / no-tskip / no-tskip-fast / strong-intra-smoothing / no-lossless / no-cu-lossless / no-constrained-intra / no-fast-intra / open-gop / no-temporal-layers / interlace=0 / keyint=250 / min-keyint=23 / scenecut=40 / rc-lookahead=20 / lookahead-slices=5 / bframes=4 / bframe-bias=0 / b-adapt=2 / ref=3 / limit-refs=3 / no-limit-modes / weightp / no-weightb / aq-mode=2 / qg-size=32 / aq-strength=1.00 / cbqpoffs=0 / crqpoffs=0 / rd=3 / psy-rd=2.00 / rdoq-level=0 / psy-rdoq=0.00 / log2-max-poc-lsb=8 / no-rd-refine / signhide / deblock=0:0 / sao / no-sao-non-deblock / b-pyramid / cutree / no-intra-refresh / rc=2 / pass / bitrate=2469 / qcomp=0.60 / qpmin=0 / qpmax=69 / qpstep=4 / cplxblur=20.0 / qblur=0.5 / ipratio=1.40 / pbratio=1.30
Default                                  : Yes
Forced                                   : No

Audio
ID                                       : 2
Format                                   : AAC
Format/Info                              : Advanced Audio Codec
Format profile                           : LC
Codec ID                                 : A_AAC
Duration                                 : 2 h 48 min
Bit rate                                 : 353 kb/s
Channel(s)                               : 6 channels
Channel positions                        : Front: L C R, Side: L R, LFE
Sampling rate                            : 48.0 kHz
Frame rate                               : 46.875 FPS (1024 spf)
Compression mode                         : Lossy
Delay relative to video                  : 20 ms
Stream size                              : 421 MiB (12%)
Language                                 : English
Default                                  : Yes
Forced                                   : No

Text #1
ID                                       : 3
Format                                   : VobSub
Muxing mode                              : zlib
Codec ID                                 : S_VOBSUB
Codec ID/Info                            : Picture based subtitle format used on DVDs
Duration                                 : 2 h 46 min
Bit rate                                 : 3 547 b/s
Count of elements                        : 1652
Stream size                              : 4.22 MiB (0%)
Language                                 : English
Default                                  : No
Forced                                   : No

Text #2
ID                                       : 4
Format                                   : VobSub
Muxing mode                              : zlib
Codec ID                                 : S_VOBSUB
Codec ID/Info                            : Picture based subtitle format used on DVDs
Duration                                 : 2 h 46 min
Bit rate                                 : 2 775 b/s
Count of elements                        : 1425
Stream size                              : 3.31 MiB (0%)
Language                                 : French
Default                                  : No
Forced                                   : No

Text #3
ID                                       : 5
Format                                   : VobSub
Muxing mode                              : zlib
Codec ID                                 : S_VOBSUB
Codec ID/Info                            : Picture based subtitle format used on DVDs
Duration                                 : 2 h 46 min
Bit rate                                 : 3 119 b/s
Count of elements                        : 1506
Stream size                              : 3.72 MiB (0%)
Language                                 : Italian
Default                                  : No
Forced                                   : No

Text #4
ID                                       : 6
Format                                   : VobSub
Muxing mode                              : zlib
Codec ID                                 : S_VOBSUB
Codec ID/Info                            : Picture based subtitle format used on DVDs
Duration                                 : 2 h 47 min
Bit rate                                 : 3 217 b/s
Count of elements                        : 1435
Stream size                              : 3.85 MiB (0%)
Language                                 : German
Default                                  : No
Forced                                   : No

Text #5
ID                                       : 7
Format                                   : VobSub
Muxing mode                              : zlib
Codec ID                                 : S_VOBSUB
Codec ID/Info                            : Picture based subtitle format used on DVDs
Duration                                 : 2 h 42 min
Bit rate                                 : 8 b/s
Count of elements                        : 5
Stream size                              : 10.2 KiB (0%)
Title                                    : Forced
Language                                 : German
Default                                  : No
Forced                                   : No

Menu
00:00:00.000                             : en:Chapter 01
00:04:33.940                             : en:Chapter 02
00:10:01.809                             : en:Chapter 03
00:19:58.280                             : en:Chapter 04
00:26:07.482                             : en:Chapter 05
00:32:47.340                             : en:Chapter 06
00:39:40.336                             : en:Chapter 07
00:46:04.762                             : en:Chapter 08
00:51:31.963                             : en:Chapter 09
00:58:03.730                             : en:Chapter 10
01:04:50.678                             : en:Chapter 11
01:12:46.820                             : en:Chapter 12
01:17:54.878                             : en:Chapter 13
01:24:46.539                             : en:Chapter 14
01:28:41.357                             : en:Chapter 15
01:33:34.150                             : en:Chapter 16
01:38:05.671                             : en:Chapter 17
01:41:52.981                             : en:Chapter 18
01:48:12.652                             : en:Chapter 19
01:53:13.286                             : en:Chapter 20
01:59:31.372                             : en:Chapter 21
02:05:52.211                             : en:Chapter 22
02:09:13.245                             : en:Chapter 23
02:13:53.525                             : en:Chapter 24
02:23:19.257                             : en:Chapter 25
02:28:15.636                             : en:Chapter 26
02:34:29.218                             : en:Chapter 27
02:38:48.560                             : en:Chapter 28

Download

File: Pirates of the Caribbean – At World’s End 2007 (1080p x265 10bit Tigole).mkv (3.34 GB)

Movie: Google Drive

Featurettes: Google Drive

Leave a Reply