Pirates of the Caribbean: Dead Man’s Chest 2006 (1080p Bluray x265 HEVC 10bit AAC 5.1 Tigole)

Info

Plot: Jack Sparrow races to recover the heart of Davy Jones to avoid enslaving his soul to Jones’ service, as other friends and foes seek the heart for their own agenda as well.

Mediainfo

General
Format                                   : Matroska
Format version                           : Version 4 / Version 2
File size                                : 2.98 GiB
Duration                                 : 2 h 30 min
Overall bit rate                         : 2 831 kb/s
Encoded date                             : UTC 2016-10-13 09:40:01
Writing application                      : mkvmerge v9.2.0 ('Photograph') 64bit
Writing library                          : libebml v1.3.3 + libmatroska v1.4.4

Video
ID                                       : 1
Format                                   : HEVC
Format/Info                              : High Efficiency Video Coding
Format profile                           : Main [email protected]@Main
Codec ID                                 : V_MPEGH/ISO/HEVC
Duration                                 : 2 h 30 min
Bit rate                                 : 2 467 kb/s
Width                                    : 1 920 pixels
Height                                   : 800 pixels
Display aspect ratio                     : 2.40:1
Frame rate mode                          : Constant
Frame rate                               : 23.976 (24000/1001) FPS
Color space                              : YUV
Chroma subsampling                       : 4:2:0
Bit depth                                : 10 bits
Bits/(Pixel*Frame)                       : 0.067
Stream size                              : 2.60 GiB (87%)
Writing library                          : x265 2.1+2-c0d91c2b4048:[Windows][GCC 6.2.0][64 bit] 10bit
Encoding settings                        : wpp / ctu=64 / min-cu-size=8 / max-tu-size=32 / tu-intra-depth=1 / tu-inter-depth=1 / me=1 / subme=2 / merange=57 / no-rect / no-amp / max-merge=2 / temporal-mvp / no-early-skip / rskip / rdpenalty=0 / no-tskip / no-tskip-fast / strong-intra-smoothing / no-lossless / no-cu-lossless / no-constrained-intra / no-fast-intra / open-gop / no-temporal-layers / interlace=0 / keyint=250 / min-keyint=23 / scenecut=40 / rc-lookahead=20 / lookahead-slices=5 / bframes=4 / bframe-bias=0 / b-adapt=2 / ref=3 / limit-refs=3 / no-limit-modes / weightp / no-weightb / aq-mode=2 / qg-size=32 / aq-strength=1.00 / cbqpoffs=0 / crqpoffs=0 / rd=3 / psy-rd=2.00 / rdoq-level=0 / psy-rdoq=0.00 / log2-max-poc-lsb=8 / no-rd-refine / signhide / deblock=0:0 / sao / no-sao-non-deblock / b-pyramid / cutree / no-intra-refresh / rc=2 / pass / bitrate=2466 / qcomp=0.60 / qpmin=0 / qpmax=69 / qpstep=4 / cplxblur=20.0 / qblur=0.5 / ipratio=1.40 / pbratio=1.30
Default                                  : Yes
Forced                                   : No

Audio
ID                                       : 2
Format                                   : AAC
Format/Info                              : Advanced Audio Codec
Format profile                           : LC
Codec ID                                 : A_AAC
Duration                                 : 2 h 30 min
Bit rate                                 : 353 kb/s
Channel(s)                               : 6 channels
Channel positions                        : Front: L C R, Side: L R, LFE
Sampling rate                            : 48.0 kHz
Frame rate                               : 46.875 FPS (1024 spf)
Compression mode                         : Lossy
Delay relative to video                  : 20 ms
Stream size                              : 380 MiB (12%)
Language                                 : English
Default                                  : Yes
Forced                                   : No

Text #1
ID                                       : 3
Format                                   : VobSub
Muxing mode                              : zlib
Codec ID                                 : S_VOBSUB
Codec ID/Info                            : Picture based subtitle format used on DVDs
Duration                                 : 2 h 29 min
Bit rate                                 : 3 525 b/s
Count of elements                        : 1487
Stream size                              : 3.77 MiB (0%)
Language                                 : English
Default                                  : No
Forced                                   : No

Text #2
ID                                       : 4
Format                                   : VobSub
Muxing mode                              : zlib
Codec ID                                 : S_VOBSUB
Codec ID/Info                            : Picture based subtitle format used on DVDs
Duration                                 : 2 h 20 min
Bit rate                                 : 3 167 b/s
Count of elements                        : 1214
Stream size                              : 3.17 MiB (0%)
Language                                 : Italian
Default                                  : No
Forced                                   : No

Text #3
ID                                       : 5
Format                                   : VobSub
Muxing mode                              : zlib
Codec ID                                 : S_VOBSUB
Codec ID/Info                            : Picture based subtitle format used on DVDs
Duration                                 : 2 h 21 min
Bit rate                                 : 3 221 b/s
Count of elements                        : 1246
Stream size                              : 3.26 MiB (0%)
Language                                 : German
Default                                  : No
Forced                                   : No

Text #4
ID                                       : 6
Format                                   : VobSub
Muxing mode                              : zlib
Codec ID                                 : S_VOBSUB
Codec ID/Info                            : Picture based subtitle format used on DVDs
Duration                                 : 2 h 21 min
Bit rate                                 : 3 b/s
Count of elements                        : 2
Stream size                              : 3.92 KiB (0%)
Title                                    : Forced
Language                                 : German
Default                                  : No
Forced                                   : No

Menu
00:00:00.000                             : en:Chapter 01
00:04:18.925                             : en:Chapter 02
00:09:53.009                             : en:Chapter 03
00:12:13.441                             : en:Chapter 04
00:19:09.064                             : en:Chapter 05
00:23:53.473                             : en:Chapter 06
00:30:15.480                             : en:Chapter 07
00:35:29.418                             : en:Chapter 08
00:40:32.930                             : en:Chapter 09
00:46:28.035                             : en:Chapter 10
00:50:25.564                             : en:Chapter 11
00:56:18.625                             : en:Chapter 12
00:59:52.380                             : en:Chapter 13
01:05:45.191                             : en:Chapter 14
01:11:55.853                             : en:Chapter 15
01:17:04.328                             : en:Chapter 16
01:22:10.258                             : en:Chapter 17
01:30:36.639                             : en:Chapter 18
01:34:38.172                             : en:Chapter 19
01:39:21.830                             : en:Chapter 20
01:44:52.411                             : en:Chapter 21
01:49:14.714                             : en:Chapter 22
01:54:55.805                             : en:Chapter 23
01:59:36.043                             : en:Chapter 24
02:04:59.909                             : en:Chapter 25
02:10:27.194                             : en:Chapter 26
02:16:20.630                             : en:Chapter 27
02:21:04.789                             : en:Chapter 28

Download

File: Pirates of the Caribbean – Dead Man’s Chest 2006 (1080p x265 10bit Tigole).mkv (2.98 GB)

Movie: Google Drive

Leave a Reply