Pirates of the Caribbean: The Curse of the Black Pearl 2003 (1080p Bluray x265 HEVC 10bit AAC 5.1 Tigole)

Info

Plot: Blacksmith Will Turner teams up with eccentric pirate “Captain” Jack Sparrow to save his love, the governor’s daughter, from Jack’s former pirate allies, who are now undead.

Mediainfo

General
Format                                   : Matroska
Format version                           : Version 4 / Version 2
File size                                : 2.83 GiB
Duration                                 : 2 h 23 min
Overall bit rate                         : 2 832 kb/s
Encoded date                             : UTC 2016-10-13 07:11:54
Writing application                      : mkvmerge v9.2.0 ('Photograph') 64bit
Writing library                          : libebml v1.3.3 + libmatroska v1.4.4

Video
ID                                       : 1
Format                                   : HEVC
Format/Info                              : High Efficiency Video Coding
Format profile                           : Main [email protected]@Main
Codec ID                                 : V_MPEGH/ISO/HEVC
Duration                                 : 2 h 23 min
Bit rate                                 : 2 479 kb/s
Width                                    : 1 920 pixels
Height                                   : 800 pixels
Display aspect ratio                     : 2.40:1
Frame rate mode                          : Constant
Frame rate                               : 23.976 (24000/1001) FPS
Color space                              : YUV
Chroma subsampling                       : 4:2:0
Bit depth                                : 10 bits
Bits/(Pixel*Frame)                       : 0.067
Stream size                              : 2.48 GiB (88%)
Writing library                          : x265 2.1+2-c0d91c2b4048:[Windows][GCC 6.2.0][64 bit] 10bit
Encoding settings                        : wpp / ctu=64 / min-cu-size=8 / max-tu-size=32 / tu-intra-depth=1 / tu-inter-depth=1 / me=1 / subme=2 / merange=57 / no-rect / no-amp / max-merge=2 / temporal-mvp / no-early-skip / rskip / rdpenalty=0 / no-tskip / no-tskip-fast / strong-intra-smoothing / no-lossless / no-cu-lossless / no-constrained-intra / no-fast-intra / open-gop / no-temporal-layers / interlace=0 / keyint=250 / min-keyint=23 / scenecut=40 / rc-lookahead=20 / lookahead-slices=5 / bframes=4 / bframe-bias=0 / b-adapt=2 / ref=3 / limit-refs=3 / no-limit-modes / weightp / no-weightb / aq-mode=2 / qg-size=32 / aq-strength=1.00 / cbqpoffs=0 / crqpoffs=0 / rd=3 / psy-rd=2.00 / rdoq-level=0 / psy-rdoq=0.00 / log2-max-poc-lsb=8 / no-rd-refine / signhide / deblock=0:0 / sao / no-sao-non-deblock / b-pyramid / cutree / no-intra-refresh / rc=2 / pass / bitrate=2479 / qcomp=0.60 / qpmin=0 / qpmax=69 / qpstep=4 / cplxblur=20.0 / qblur=0.5 / ipratio=1.40 / pbratio=1.30
Default                                  : Yes
Forced                                   : No

Audio
ID                                       : 2
Format                                   : AAC
Format/Info                              : Advanced Audio Codec
Format profile                           : LC
Codec ID                                 : A_AAC
Duration                                 : 2 h 23 min
Bit rate                                 : 339 kb/s
Channel(s)                               : 6 channels
Channel positions                        : Front: L C R, Side: L R, LFE
Sampling rate                            : 48.0 kHz
Frame rate                               : 46.875 FPS (1024 spf)
Compression mode                         : Lossy
Delay relative to video                  : 20 ms
Stream size                              : 348 MiB (12%)
Language                                 : English
Default                                  : Yes
Forced                                   : No

Text #1
ID                                       : 3
Format                                   : VobSub
Muxing mode                              : zlib
Codec ID                                 : S_VOBSUB
Codec ID/Info                            : Picture based subtitle format used on DVDs
Duration                                 : 2 h 12 min
Bit rate                                 : 4 577 b/s
Count of elements                        : 1925
Stream size                              : 4.34 MiB (0%)
Language                                 : English
Default                                  : No
Forced                                   : No

Text #2
ID                                       : 4
Format                                   : VobSub
Muxing mode                              : zlib
Codec ID                                 : S_VOBSUB
Codec ID/Info                            : Picture based subtitle format used on DVDs
Duration                                 : 2 h 13 min
Bit rate                                 : 3 764 b/s
Count of elements                        : 1582
Stream size                              : 3.58 MiB (0%)
Language                                 : Italian
Default                                  : No
Forced                                   : No

Text #3
ID                                       : 5
Format                                   : VobSub
Muxing mode                              : zlib
Codec ID                                 : S_VOBSUB
Codec ID/Info                            : Picture based subtitle format used on DVDs
Duration                                 : 2 h 14 min
Bit rate                                 : 3 592 b/s
Count of elements                        : 1258
Stream size                              : 3.45 MiB (0%)
Language                                 : German
Default                                  : No
Forced                                   : No

Text #4
ID                                       : 6
Format                                   : VobSub
Muxing mode                              : zlib
Codec ID                                 : S_VOBSUB
Codec ID/Info                            : Picture based subtitle format used on DVDs
Duration                                 : 2 h 14 min
Bit rate                                 : 4 b/s
Count of elements                        : 3
Stream size                              : 4.85 KiB (0%)
Title                                    : Forced
Language                                 : German
Default                                  : No
Forced                                   : No

Menu
00:00:00.000                             : en:Chapter 01
00:08:51.280                             : en:Chapter 02
00:16:05.547                             : en:Chapter 03
00:27:16.343                             : en:Chapter 04
00:35:59.323                             : en:Chapter 05
00:41:02.960                             : en:Chapter 06
00:48:19.938                             : en:Chapter 07
00:54:01.279                             : en:Chapter 08
01:04:05.675                             : en:Chapter 09
01:15:56.802                             : en:Chapter 10
01:21:21.418                             : en:Chapter 11
01:35:00.152                             : en:Chapter 12
01:40:00.744                             : en:Chapter 13
01:48:15.614                             : en:Chapter 14
02:02:02.189                             : en:Chapter 15
02:13:09.648                             : en:Chapter 16

Download

File: Pirates of the Caribbean – The Curse of the Black Pearl 2003 (1080p x265 10bit Tigole).mkv (2.83 GB)

Movie: Google Drive

Featurettes: Google Drive

Leave a Reply