Paper Towns (2015) (1080p BluRay x265 HEVC 10bit AAC 5.1 Silence)

Info

Image result for Paper Towns (2015)

Plot: After an all-night adventure, Quentin’s lifelong crush, Margo, disappears, leaving behind clues that Quentin and his friends follow on the journey of a lifetime.

Encode

Source:

Release: 
Paper.Towns.2015.BluRay.1080p.AVC.DTS-HD.MA5.1-MTeam

Mediainfo

General 
Format : Matroska 
Format version : Version 4 / Version 2 
File size : 2.67 GiB 
Duration : 1 h 49 min 
Overall bit rate : 3 508 kb/s 
Movie name : Paper Towns 
Encoded date : UTC 2018-12-22 08:39:49 
Writing application : mkvmerge v20.0.0 ('I Am The Sun') 64-bit 
Writing library : libebml v1.3.5 + libmatroska v1.4.8 
Writing frontend : StaxRip v1.7.0.6 

Video 
ID : 1 
Format : HEVC 
Format/Info : High Efficiency Video Coding 
Format profile : Main [email protected]@Main 
Codec ID : V_MPEGH/ISO/HEVC 
Duration : 1 h 49 min 
Bit rate : 2 876 kb/s 
Width : 1 920 pixels 
Height : 820 pixels 
Display aspect ratio : 2.35:1 
Frame rate mode : Constant 
Frame rate : 23.976 (24000/1001) FPS 
Color space : YUV 
Chroma subsampling : 4:2:0 
Bit depth : 10 bits 
Bits/(Pixel*Frame) : 0.076 
Stream size : 2.19 GiB (82%) 
Writing library : x265 2.9+8-27d8424c799d:[Windows][MSVC 1900][64 bit] 10bit 
Encoding settings : cpuid=1111039 / frame-threads=4 / numa-pools=16 / wpp / no-pmode / no-pme / no-psnr / no-ssim / log-level=2 / input-csp=1 / input-res=1920x820 / interlace=0 / total-frames=156936 / level-idc=0 / high-tier=1 / uhd-bd=0 / ref=4 / no-allow-non-conformance / no-repeat-headers / annexb / no-aud / no-hrd / info / hash=0 / no-temporal-layers / open-gop / min-keyint=23 / keyint=250 / gop-lookahead=0 / bframes=8 / b-adapt=2 / b-pyramid / bframe-bias=0 / rc-lookahead=60 / lookahead-slices=4 / scenecut=40 / radl=0 / no-intra-refresh / ctu=64 / min-cu-size=8 / rect / no-amp / max-tu-size=32 / tu-inter-depth=1 / tu-intra-depth=1 / limit-tu=0 / rdoq-level=2 / dynamic-rd=0.00 / no-ssim-rd / signhide / no-tskip / nr-intra=0 / nr-inter=0 / no-constrained-intra / strong-intra-smoothing / max-merge=3 / limit-refs=3 / limit-modes / me=3 / subme=5 / merange=57 / temporal-mvp / weightp / no-weightb / no-analyze-src-pics / deblock=-3:-3 / no-sao / no-sao-non-deblock / rd=4 / no-early-skip / rskip / no-fast-intra / no-tskip-fast / no-cu-lossless / no-b-intra / no-splitrd-skip / rdpenalty=0 / psy-rd=2.00 / psy-rdoq=1.00 / no-rd-refine / no-lossless / cbqpoffs=0 / crqpoffs=0 / rc=crf / crf=18.0 / qcomp=0.60 / qpstep=4 / stats-write=0 / stats-read=0 / ipratio=1.40 / pbratio=1.30 / aq-mode=3 / aq-strength=1.00 / cutree / zone-count=0 / no-strict-cbr / qg-size=32 / no-rc-grain / qpmax=69 / qpmin=0 / no-const-vbv / sar=0 / overscan=0 / videoformat=5 / range=0 / colorprim=2 / transfer=2 / colormatrix=2 / chromaloc=0 / display-window=0 / max-cll=0,0 / min-luma=0 / max-luma=1023 / log2-max-poc-lsb=8 / vui-timing-info / vui-hrd-info / slices=1 / no-opt-qp-pps / no-opt-ref-list-length-pps / no-multi-pass-opt-rps / scenecut-bias=0.05 / no-opt-cu-delta-qp / no-aq-motion / no-hdr / no-hdr-opt / no-dhdr10-opt / no-idr-recovery-sei / analysis-reuse-level=5 / scale-factor=0 / refine-intra=0 / refine-inter=0 / refine-mv=0 / no-limit-sao / ctu-info=0 / no-lowpass-dct / refine-mv-type=0 / copy-pic=1 / max-ausize-factor=1.0 / no-dynamic-refine / no-single-sei 
Default : Yes 
Forced : No 

Audio #1 
ID : 2 
Format : AAC 
Format/Info : Advanced Audio Codec 
Format profile : LC 
Codec ID : A_AAC 
Duration : 1 h 49 min 
Bit rate : 431 kb/s 
Channel(s) : 6 channels 
Channel positions : Front: L C R, Side: L R, LFE 
Sampling rate : 48.0 kHz 
Frame rate : 46.875 FPS (1024 spf) 
Compression mode : Lossy 
Delay relative to video : 20 ms 
Stream size : 336 MiB (12%) 
Language : English 
Default : Yes 
Forced : No 

Audio #2 
ID : 3 
Format : AAC 
Format/Info : Advanced Audio Codec 
Format profile : HE-AAC / LC 
Codec ID : A_AAC 
Duration : 1 h 49 min 
Bit rate : 80.0 kb/s 
Channel(s) : 2 channels 
Channel positions : Front: L R 
Sampling rate : 48.0 kHz / 24.0 kHz 
Frame rate : 23.438 FPS (1024 spf) 
Compression mode : Lossy 
Delay relative to video : 40 ms 
Stream size : 62.4 MiB (2%) 
Language : English 
Default : No 
Forced : No 

Subtitle #1 
ID : 4 
Format : PGS 
Muxing mode : zlib 
Codec ID : S_HDMV/PGS 
Codec ID/Info : Picture based subtitle format used on BDs/HD-DVDs 
Duration : 1 h 43 min 
Bit rate : 45.5 kb/s 
Count of elements : 3780 
Stream size : 33.8 MiB (1%) 
Language : English 
Default : No 
Forced : No 

Subtitle #2 
ID : 5 
Format : PGS 
Muxing mode : zlib 
Codec ID : S_HDMV/PGS 
Codec ID/Info : Picture based subtitle format used on BDs/HD-DVDs 
Duration : 1 h 48 min 
Bit rate : 32.9 kb/s 
Count of elements : 2930 
Stream size : 25.5 MiB (1%) 
Language : Spanish 
Default : No 
Forced : No 

Subtitle #3 
ID : 6 
Format : PGS 
Muxing mode : zlib 
Codec ID : S_HDMV/PGS 
Codec ID/Info : Picture based subtitle format used on BDs/HD-DVDs 
Duration : 1 h 1 min 
Bit rate : 268 b/s 
Count of elements : 8 
Stream size : 121 KiB (0%) 
Language : Spanish 
Default : No 
Forced : No 

Subtitle #4 
ID : 7 
Format : PGS 
Muxing mode : zlib 
Codec ID : S_HDMV/PGS 
Codec ID/Info : Picture based subtitle format used on BDs/HD-DVDs 
Duration : 1 h 48 min 
Bit rate : 35.0 kb/s 
Count of elements : 3120 
Stream size : 27.1 MiB (1%) 
Language : French 
Default : No 
Forced : No 

Subtitle #5 
ID : 8 
Format : PGS 
Muxing mode : zlib 
Codec ID : S_HDMV/PGS 
Codec ID/Info : Picture based subtitle format used on BDs/HD-DVDs 
Duration : 1 h 44 min 
Bit rate : 333 b/s 
Count of elements : 24 
Stream size : 257 KiB (0%) 
Language : French 
Default : No 
Forced : No 

Subtitle #6 
ID : 9 
Format : PGS 
Muxing mode : zlib 
Codec ID : S_HDMV/PGS 
Codec ID/Info : Picture based subtitle format used on BDs/HD-DVDs 
Duration : 1 h 48 min 
Bit rate : 103 kb/s 
Count of elements : 5064 
Stream size : 80.0 MiB (3%) 
Language : English 
Default : No 
Forced : No 

Subtitle #7 
ID : 10 
Format : PGS 
Muxing mode : zlib 
Codec ID : S_HDMV/PGS 
Codec ID/Info : Picture based subtitle format used on BDs/HD-DVDs 
Duration : 1 h 48 min 
Bit rate : 78.4 kb/s 
Count of elements : 4884 
Stream size : 61.1 MiB (2%) 
Language : Spanish 
Default : No 
Forced : No 

Subtitle #8 
ID : 11 
Format : PGS 
Muxing mode : zlib 
Codec ID : S_HDMV/PGS 
Codec ID/Info : Picture based subtitle format used on BDs/HD-DVDs 
Duration : 1 h 48 min 
Bit rate : 78.7 kb/s 
Count of elements : 4884 
Stream size : 61.3 MiB (2%) 
Language : French 
Default : No 
Forced : No 

Menu 
00:00:00.000 : en:Chapter 01 
00:03:59.155 : en:Chapter 02 
00:06:03.112 : en:Chapter 03 
00:09:06.420 : en:Chapter 04 
00:11:11.379 : en:Chapter 05 
00:13:34.688 : en:Chapter 06 
00:18:08.212 : en:Chapter 07 
00:22:25.886 : en:Chapter 08 
00:27:34.277 : en:Chapter 09 
00:31:18.209 : en:Chapter 10 
00:33:18.746 : en:Chapter 11 
00:37:51.060 : en:Chapter 12 
00:40:43.816 : en:Chapter 13 
00:43:56.508 : en:Chapter 14 
00:48:08.802 : en:Chapter 15 
00:50:20.100 : en:Chapter 16 
00:54:39.067 : en:Chapter 17 
00:59:02.455 : en:Chapter 18 
01:02:55.146 : en:Chapter 19 
01:06:57.555 : en:Chapter 20 
01:13:01.085 : en:Chapter 21 
01:16:49.771 : en:Chapter 22 
01:21:41.354 : en:Chapter 23 
01:26:22.093 : en:Chapter 24 
01:33:31.105 : en:Chapter 25 
01:36:36.499 : en:Chapter 26 
01:39:32.967 : en:Chapter 27 
01:42:31.520 : en:Chapter 28

Download

File: Paper Towns (2015) (1080p BluRay x265 Silence).mkv (2.7 GB)

Movie: Google Drive

Featurettes: Google Drive

Leave a Reply