Padmaavat (2018) (1080p BluRay x265 HEVC 10bit AAC 7.1 Hindi Natty)

Info

Plot: Rani Padmavati – the wife of Maharawal Ratan Singh, is known for her beauty and valour in 13th century India. She captures the fancy of the reigning Sultan of Delhi, the tyrant Alauddin Khilji, who becomes obsessed with her and goes to great lengths to fulfill his greed.

Encode

Source:

Padmaavat.2018.Untouched.-.BD50.-.AVC.-.True.HD.7.1.-.ESuBS.-.Hon3yHD | 46 GB | Hon3yHD

Mediainfo

General 
Format : Matroska 
Format version : Version 4 / Version 2 
File size : 4.95 GiB 
Duration : 2 h 43 min 
Overall bit rate : 4 334 kb/s 
Encoded date : UTC 2018-06-22 23:40:33 
Writing application : mkvmerge v24.0.0 ('Beyond The Pale') 64-bit 
Writing library : libebml v1.3.6 + libmatroska v1.4.9 
Writing frontend : Natty 

Video 
ID : 1 
Format : HEVC 
Format/Info : High Efficiency Video Coding 
Format profile : Main [email protected]@Main 
Codec ID : V_MPEGH/ISO/HEVC 
Duration : 2 h 43 min 
Bit rate : 3 634 kb/s 
Width : 1 920 pixels 
Height : 806 pixels 
Display aspect ratio : 2.40:1 
Frame rate mode : Constant 
Frame rate : 24.000 FPS 
Color space : YUV 
Chroma subsampling : 4:2:0 
Bit depth : 10 bits 
Bits/(Pixel*Frame) : 0.098 
Stream size : 4.15 GiB (84%) 
Writing library : x265 2.8+22-8f1d8a875bee:[Windows][MSVC 1914][64 bit] 10bit 
Encoding settings : cpuid=1111039 / frame-threads=2 / numa-pools=4 / wpp / no-pmode / no-pme / no-psnr / no-ssim / log-level=2 / input-csp=1 / input-res=1920x806 / interlace=0 / total-frames=235400 / level-idc=0 / high-tier=1 / uhd-bd=0 / ref=5 / no-allow-non-conformance / no-repeat-headers / annexb / no-aud / no-hrd / info / hash=0 / no-temporal-layers / open-gop / min-keyint=24 / keyint=400 / gop-lookahead=0 / bframes=8 / b-adapt=2 / b-pyramid / bframe-bias=0 / rc-lookahead=100 / lookahead-slices=4 / scenecut=40 / radl=0 / no-intra-refresh / ctu=32 / min-cu-size=8 / no-rect / no-amp / max-tu-size=16 / tu-inter-depth=1 / tu-intra-depth=1 / limit-tu=0 / rdoq-level=2 / dynamic-rd=0.00 / no-ssim-rd / signhide / no-tskip / nr-intra=0 / nr-inter=0 / no-constrained-intra / no-strong-intra-smoothing / max-merge=2 / limit-refs=3 / limit-modes / me=3 / subme=5 / merange=57 / temporal-mvp / weightp / weightb / no-analyze-src-pics / deblock=-3:0 / no-sao / no-sao-non-deblock / rd=4 / no-early-skip / rskip / no-fast-intra / no-tskip-fast / no-cu-lossless / no-b-intra / no-splitrd-skip / rdpenalty=0 / psy-rd=2.00 / psy-rdoq=0.00 / no-rd-refine / no-lossless / cbqpoffs=0 / crqpoffs=0 / rc=crf / crf=22.0 / qcomp=0.60 / qpstep=4 / stats-write=0 / stats-read=0 / ipratio=1.40 / pbratio=1.30 / aq-mode=3 / aq-strength=1.00 / cutree / zone-count=0 / no-strict-cbr / qg-size=32 / no-rc-grain / qpmax=69 / qpmin=0 / no-const-vbv / sar=0 / overscan=0 / videoformat=5 / range=0 / colorprim=1 / transfer=1 / colormatrix=1 / chromaloc=0 / display-window=0 / max-cll=0,0 / min-luma=0 / max-luma=1023 / log2-max-poc-lsb=8 / vui-timing-info / vui-hrd-info / slices=1 / no-opt-qp-pps / no-opt-ref-list-length-pps / no-multi-pass-opt-rps / scenecut-bias=0.05 / no-opt-cu-delta-qp / aq-motion / no-hdr / no-hdr-opt / no-dhdr10-opt / no-idr-recovery-sei / analysis-reuse-level=8 / scale-factor=0 / refine-intra=0 / refine-inter=0 / refine-mv=0 / no-limit-sao / ctu-info=0 / no-lowpass-dct / refine-mv-type=0 / copy-pic=1 / max-ausize-factor=1.0 / no-dynamic-refine / no-single-sei 
Default : Yes 
Forced : No 
Color range : Limited 
Color primaries : BT.709 
Transfer characteristics : BT.709 
Matrix coefficients : BT.709 

Audio 
ID : 2 
Format : AAC 
Format/Info : Advanced Audio Codec 
Format profile : LC 
Codec ID : A_AAC 
Duration : 2 h 43 min 
Bit rate : 689 kb/s 
Channel(s) : 8 channels 
Channel positions : Front: L C R, Side: 4, LFE 
Sampling rate : 48.0 kHz 
Frame rate : 46.875 FPS (1024 spf) 
Compression mode : Lossy 
Delay relative to video : 20 ms 
Stream size : 805 MiB (16%) 
Language : Hindi 
Default : No 
Forced : No 

Subtitle 
ID : 3 
Format : PGS 
Muxing mode : zlib 
Codec ID : S_HDMV/PGS 
Codec ID/Info : Picture based subtitle format used on BDs/HD-DVDs 
Duration : 2 h 32 min 
Bit rate : 22.2 kb/s 
Count of elements : 2506 
Stream size : 24.3 MiB (0%) 
Language : English 
Default : No 
Forced : No 

Menu 
00:00:00.000 : en:Chapter 01 
00:05:44.000 : en:Chapter 02 
00:11:06.500 : en:Chapter 03 
00:19:30.000 : en:Chapter 04 
00:21:04.000 : en:Chapter 05 
00:25:57.000 : en:Chapter 06 
00:27:54.000 : en:Chapter 07 
00:32:30.000 : en:Chapter 08 
00:37:36.500 : en:Chapter 09 
00:46:59.000 : en:Chapter 10 
00:50:53.500 : en:Chapter 11 
01:01:10.000 : en:Chapter 12 
01:11:04.500 : en:Chapter 13 
01:13:42.500 : en:Chapter 14 
01:18:44.500 : en:Chapter 15 
01:29:09.000 : en:Chapter 16 
01:45:50.000 : en:Chapter 17 
01:52:03.000 : en:Chapter 18 
01:56:03.000 : en:Chapter 19 
02:15:41.000 : en:Chapter 20 
02:20:55.000 : en:Chapter 21 
02:24:45.000 : en:Chapter 22

Screencaps

Download

File: Padmaavat (2018) (1080p BluRay x265 Natty).mkv (4.9 GB)

Movie: Google Drive

5 thoughts on “Padmaavat (2018) (1080p BluRay x265 HEVC 10bit AAC 7.1 Hindi Natty)

Leave a Reply