OMG – Oh My God! (2012) (1080p BluRay x265 HEVC 10bit AAC 7.1 Hindi Natty)

Info

Plot: Adapted from a Gujarati play by Bhavesh Mandalia, writer Umesh Shukla has adapted the drama to the big screen quite skillfully. Paresh Rawal’s character Kanjilal gets some of the best dialogues and thespian does full justice to them. Kanjilal’s arguments and counter-questions are very well thought out. The take on the God-men is very interesting. The best part was the parallel drawn to the Mahabharata towards the end, with Krishna (Akshay) re-playing his role as the legendary charioteer-advisor for a warrior (Arjun then, Kanji now).

Encode

Source:

OMG.2012.BD50.Untouched.BluRay.DRs | 42 GB | Hon3yHD

Mediainfo

General 
Format : Matroska 
Format version : Version 4 / Version 2 
File size : 4.31 GiB 
Duration : 2 h 9 min 
Overall bit rate : 4 767 kb/s 
Encoded date : UTC 2018-07-19 23:48:18 
Writing application : mkvmerge v25.0.0 ('Prog Noir') 64-bit 
Writing library : libebml v1.3.6 + libmatroska v1.4.9 
Writing frontend : Natty 

Video 
ID : 1 
Format : HEVC 
Format/Info : High Efficiency Video Coding 
Format profile : Main [email protected]@Main 
Codec ID : V_MPEGH/ISO/HEVC 
Duration : 2 h 9 min 
Bit rate : 4 072 kb/s 
Width : 1 916 pixels 
Height : 818 pixels 
Display aspect ratio : 2.35:1 
Frame rate mode : Constant 
Frame rate : 24.000 FPS 
Color space : YUV 
Chroma subsampling : 4:2:0 
Bit depth : 10 bits 
Bits/(Pixel*Frame) : 0.108 
Stream size : 3.68 GiB (85%) 
Writing library : x265 2.8+44-18eaffdd3638:[Windows][MSVC 1914][64 bit] 10bit 
Encoding settings : cpuid=1111039 / frame-threads=2 / numa-pools=4 / wpp / no-pmode / no-pme / no-psnr / no-ssim / log-level=2 / input-csp=1 / input-res=1916x818 / interlace=0 / total-frames=186549 / level-idc=0 / high-tier=1 / uhd-bd=0 / ref=5 / no-allow-non-conformance / no-repeat-headers / annexb / no-aud / no-hrd / info / hash=0 / no-temporal-layers / open-gop / min-keyint=24 / keyint=400 / gop-lookahead=0 / bframes=8 / b-adapt=2 / b-pyramid / bframe-bias=0 / rc-lookahead=100 / lookahead-slices=4 / scenecut=40 / radl=0 / no-intra-refresh / ctu=32 / min-cu-size=8 / no-rect / no-amp / max-tu-size=16 / tu-inter-depth=1 / tu-intra-depth=1 / limit-tu=0 / rdoq-level=2 / dynamic-rd=0.00 / no-ssim-rd / signhide / no-tskip / nr-intra=0 / nr-inter=0 / no-constrained-intra / no-strong-intra-smoothing / max-merge=2 / limit-refs=3 / limit-modes / me=3 / subme=5 / merange=57 / temporal-mvp / weightp / weightb / no-analyze-src-pics / deblock=-2:0 / no-sao / no-sao-non-deblock / rd=4 / no-early-skip / rskip / no-fast-intra / no-tskip-fast / no-cu-lossless / no-b-intra / no-splitrd-skip / rdpenalty=0 / psy-rd=1.50 / psy-rdoq=0.80 / no-rd-refine / no-lossless / cbqpoffs=0 / crqpoffs=0 / rc=crf / crf=24.0 / qcomp=0.60 / qpstep=4 / stats-write=0 / stats-read=0 / ipratio=1.40 / pbratio=1.30 / aq-mode=3 / aq-strength=0.90 / cutree / zone-count=0 / no-strict-cbr / qg-size=32 / no-rc-grain / qpmax=69 / qpmin=0 / no-const-vbv / sar=0 / overscan=0 / videoformat=5 / range=0 / colorprim=1 / transfer=1 / colormatrix=1 / chromaloc=0 / display-window=0 / max-cll=0,0 / min-luma=0 / max-luma=1023 / log2-max-poc-lsb=8 / vui-timing-info / vui-hrd-info / slices=1 / no-opt-qp-pps / no-opt-ref-list-length-pps / no-multi-pass-opt-rps / scenecut-bias=0.05 / no-opt-cu-delta-qp / aq-motion / no-hdr / no-hdr-opt / no-dhdr10-opt / no-idr-recovery-sei / analysis-reuse-level=8 / scale-factor=0 / refine-intra=0 / refine-inter=0 / refine-mv=0 / no-limit-sao / ctu-info=0 / no-lowpass-dct / refine-mv-type=0 / copy-pic=1 / max-ausize-factor=1.0 / no-dynamic-refine / no-single-sei 
Default : Yes 
Forced : No 
Color range : Limited 
Color primaries : BT.709 
Transfer characteristics : BT.709 
Matrix coefficients : BT.709 

Audio 
ID : 2 
Format : AAC 
Format/Info : Advanced Audio Codec 
Format profile : LC 
Codec ID : A_AAC 
Duration : 2 h 9 min 
Bit rate : 590 kb/s 
Channel(s) : 8 channels 
Channel positions : Front: L C R, Side: 4, LFE 
Sampling rate : 48.0 kHz 
Frame rate : 46.875 FPS (1024 spf) 
Compression mode : Lossy 
Delay relative to video : 20 ms 
Stream size : 547 MiB (12%) 
Language : Hindi 
Default : No 
Forced : No 

Subtitle #1 
ID : 3 
Format : PGS 
Muxing mode : zlib 
Codec ID : S_HDMV/PGS 
Codec ID/Info : Picture based subtitle format used on BDs/HD-DVDs 
Duration : 2 h 3 min 
Bit rate : 44.1 kb/s 
Count of elements : 4304 
Stream size : 38.8 MiB (1%) 
Language : English 
Default : Yes 
Forced : No 

Subtitle #2 
ID : 4 
Format : PGS 
Muxing mode : zlib 
Codec ID : S_HDMV/PGS 
Codec ID/Info : Picture based subtitle format used on BDs/HD-DVDs 
Duration : 2 h 5 min 
Bit rate : 29.6 kb/s 
Count of elements : 4099 
Stream size : 26.6 MiB (1%) 
Language : Chinese 
Default : No 
Forced : No 

Subtitle #3 
ID : 5 
Format : PGS 
Muxing mode : zlib 
Codec ID : S_HDMV/PGS 
Codec ID/Info : Picture based subtitle format used on BDs/HD-DVDs 
Duration : 2 h 5 min 
Bit rate : 30.4 kb/s 
Count of elements : 4099 
Stream size : 27.3 MiB (1%) 
Language : Chinese 
Default : No 
Forced : No 

Subtitle #4 
ID : 6 
Format : PGS 
Muxing mode : zlib 
Codec ID : S_HDMV/PGS 
Codec ID/Info : Picture based subtitle format used on BDs/HD-DVDs 
Duration : 2 h 5 min 
Bit rate : 52.5 kb/s 
Count of elements : 4099 
Stream size : 47.2 MiB (1%) 
Language : Chinese 
Default : No 
Forced : No 

Subtitle #5 
ID : 7 
Format : PGS 
Muxing mode : zlib 
Codec ID : S_HDMV/PGS 
Codec ID/Info : Picture based subtitle format used on BDs/HD-DVDs 
Duration : 2 h 5 min 
Bit rate : 53.3 kb/s 
Count of elements : 4099 
Stream size : 47.9 MiB (1%) 
Language : Chinese 
Default : No 
Forced : No 

Menu 
00:00:00.000 : en:Chapter 01 
00:06:41.083 : en:Chapter 02 
00:13:01.041 : en:Chapter 03 
00:17:52.416 : en:Chapter 04 
00:24:47.083 : en:Chapter 05 
00:30:44.541 : en:Chapter 06 
00:37:38.041 : en:Chapter 07 
00:38:29.625 : en:Chapter 08 
00:40:28.625 : en:Chapter 09 
00:54:25.583 : en:Chapter 10 
00:59:37.291 : en:Chapter 11 
01:17:14.208 : en:Chapter 12 
01:34:15.333 : en:Chapter 13 
01:37:40.375 : en:Chapter 14 
01:47:27.333 : en:Chapter 15 
02:06:16.291 : en:Chapter 16

Screencaps

Download

File: OMG – Oh My God! (2012) (1080p BluRay x265 Natty).mkv (4.3 GB)

Movie: Google Drive

Leave a Reply