Nasha (2013) (1080p BluRay x265 HEVC 10bit AAC 5.1 Hindi Natty)

Info

Plot: It is the story of an 18 year old boy who falls hopelessly in love with a 25 year old woman. A woman he cannot have, but a woman he cannot help but desire. And, as is the case with desires unfulfilled, they turn into obsessions. The movie emphasizes that in a world of temptation, romance is temporary, love is lonely, but addiction is forever

Encode

Source:

Nasha.•.2013.•.BD25.•.Untouched.BluRay.•.DRs (24 GB) @Hon3yHD

Mediainfo

General 
Format : Matroska 
Format version : Version 4 / Version 2 
File size : 2.91 GiB 
Duration : 1 h 56 min 
Overall bit rate : 3 585 kb/s 
Encoded date : UTC 2017-03-27 19:14:51 
Writing application : mkvmerge v9.9.0 ('Pick Up') 64bit 
Writing library : libebml v1.3.4 + libmatroska v1.4.5 
Writing frontend : StaxRip 1.4.1.3 

Video 
ID : 1 
Format : HEVC 
Format/Info : High Efficiency Video Coding 
Format profile : Main [email protected]@Main 
Codec ID : V_MPEGH/ISO/HEVC 
Duration : 1 h 56 min 
Bit rate : 3 203 kb/s 
Width : 1 920 pixels 
Height : 816 pixels 
Display aspect ratio : 2.35:1 
Frame rate mode : Constant 
Frame rate : 24.000 FPS 
Color space : YUV 
Chroma subsampling : 4:2:0 
Bit depth : 10 bits 
Bits/(Pixel*Frame) : 0.085 
Stream size : 2.60 GiB (89%) 
Writing library : x265 2.3+24-a0eee4b41185:[Windows][GCC 7.0.1][64 bit] 10bit 
Encoding settings : cpuid=1173503 / frame-threads=2 / numa-pools=4 / wpp / no-pmode / no-pme / no-psnr / no-ssim / log-level=2 / input-csp=1 / input-res=1920x816 / interlace=0 / total-frames=167145 / level-idc=0 / high-tier=1 / uhd-bd=0 / ref=6 / no-allow-non-conformance / no-repeat-headers / annexb / no-aud / no-hrd / info / hash=0 / no-temporal-layers / open-gop / min-keyint=20 / keyint=400 / bframes=8 / b-adapt=2 / b-pyramid / bframe-bias=0 / rc-lookahead=60 / lookahead-slices=5 / scenecut=40 / no-intra-refresh / ctu=64 / min-cu-size=8 / no-rect / no-amp / max-tu-size=32 / tu-inter-depth=1 / tu-intra-depth=1 / limit-tu=0 / rdoq-level=2 / dynamic-rd=0.00 / signhide / no-tskip / nr-intra=0 / nr-inter=0 / no-constrained-intra / no-strong-intra-smoothing / max-merge=2 / limit-refs=3 / no-limit-modes / me=3 / subme=5 / merange=57 / temporal-mvp / weightp / no-weightb / no-analyze-src-pics / deblock=-3:-3 / sao / no-sao-non-deblock / rd=4 / no-early-skip / rskip / no-fast-intra / no-tskip-fast / no-cu-lossless / no-b-intra / rdpenalty=0 / psy-rd=2.00 / psy-rdoq=5.00 / no-rd-refine / analysis-mode=0 / no-lossless / cbqpoffs=0 / crqpoffs=0 / rc=abr / bitrate=3203 / qcomp=0.70 / qpstep=4 / stats-write=0 / stats-read=2 / cplxblur=20.0 / qblur=0.5 / ipratio=1.40 / pbratio=1.30 / aq-mode=3 / aq-strength=1.00 / cutree / zone-count=0 / no-strict-cbr / qg-size=32 / no-rc-grain / qpmax=69 / qpmin=0 / sar=0 / overscan=0 / videoformat=5 / range=0 / colorprim=1 / transfer=1 / colormatrix=1 / chromaloc=0 / display-window=0 / max-cll=0,0 / min-luma=0 / max-luma=1023 / log2-max-poc-lsb=8 / vui-timing-info / vui-hrd-info / slices=1 / opt-qp-pps / opt-ref-list-length-pps / multi-pass-opt-rps / scenecut-bias=0.05 / no-opt-cu-delta-qp / aq-motion / hdr / no-hdr-opt / refine-level=5 
Default : Yes 
Forced : No 
Color range : Limited 
Color primaries : BT.709 
Transfer characteristics : BT.709 
Matrix coefficients : BT.709 

Audio 
ID : 2 
Format : AAC 
Format/Info : Advanced Audio Codec 
Format profile : LC 
Codec ID : A_AAC 
Duration : 1 h 56 min 
Bit rate : 367 kb/s 
Channel(s) : 6 channels 
Channel positions : Front: L C R, Side: L R, LFE 
Sampling rate : 48.0 kHz 
Frame rate : 46.875 FPS (1024 spf) 
Compression mode : Lossy 
Delay relative to video : 20 ms 
Stream size : 305 MiB (10%) 
Language : Hindi 
Default : No 
Forced : No 

Subtitle 
ID : 3 
Format : PGS 
Muxing mode : zlib 
Codec ID : S_HDMV/PGS 
Codec ID/Info : Picture based subtitle format used on BDs/HD-DVDs 
Duration : 1 h 52 min 
Bit rate : 12.5 kb/s 
Count of elements : 2463 
Stream size : 10.1 MiB (0%) 
Language : English 
Default : No 
Forced : No 

Menu 
00:00:00.000 : en:Chapter 01 
00:05:42.458 : en:Chapter 02 
00:12:08.291 : en:Chapter 03 
00:19:59.791 : en:Chapter 04 
00:24:45.541 : en:Chapter 05 
00:33:48.541 : en:Chapter 06 
00:41:12.833 : en:Chapter 07 
00:52:51.666 : en:Chapter 08 
01:03:49.875 : en:Chapter 09 
01:08:59.833 : en:Chapter 10 
01:17:39.583 : en:Chapter 11 
01:31:29.458 : en:Chapter 12 
01:38:54.375 : en:Chapter 13 
01:44:10.791 : en:Chapter 14

Download

File: Nasha (2013) (1080p BluRay x265 Natty).mkv (2.9 GB)

Movie: Google Drive

Leave a Reply