My Name Is Khan (2010) (1080p BluRay x265 HEVC 10bit AAC 5.1 Hindi Natty)

Info

Plot: Rizwan Khan, a Muslim from the Borivali section of Mumbai, suffers from Asperger’s syndrome, a form of high-functioning autism that complicates socialization. The adult Rizwan marries a Hindu single mother, Mandira, in San Francisco. After 9/11, Rizwan is detained by authorities at LAX who mistake his disability for suspicious behavior.

Encode

Source:

My.Name.Is.Khan.•.2010.•.BD50.•.Untouched.BluRay.•.DRs | 46 GB | Hon3yHD

Mediainfo

General 
Format : Matroska 
Format version : Version 4 / Version 2 
File size : 3.67 GiB 
Duration : 2 h 41 min 
Overall bit rate : 3 255 kb/s 
Movie name : My Name is Khan 2010 BD50 
Encoded date : UTC 2018-07-01 07:17:06 
Writing application : mkvmerge v24.0.0 ('Beyond The Pale') 64-bit 
Writing library : libebml v1.3.6 + libmatroska v1.4.9 
Writing frontend : Natty 

Video 
ID : 1 
Format : HEVC 
Format/Info : High Efficiency Video Coding 
Format profile : Main [email protected]@Main 
Codec ID : V_MPEGH/ISO/HEVC 
Duration : 2 h 41 min 
Bit rate : 2 764 kb/s 
Width : 1 920 pixels 
Height : 816 pixels 
Display aspect ratio : 2.35:1 
Frame rate mode : Constant 
Frame rate : 24.000 FPS 
Color space : YUV 
Chroma subsampling : 4:2:0 
Bit depth : 10 bits 
Bits/(Pixel*Frame) : 0.074 
Stream size : 3.12 GiB (85%) 
Writing library : x265 2.8+23-656b5b442f0b:[Windows][MSVC 1914][64 bit] 10bit 
Encoding settings : cpuid=1111039 / frame-threads=2 / numa-pools=4 / wpp / no-pmode / no-pme / no-psnr / no-ssim / log-level=2 / input-csp=1 / input-res=1920x816 / interlace=0 / total-frames=232599 / level-idc=0 / high-tier=1 / uhd-bd=0 / ref=5 / no-allow-non-conformance / no-repeat-headers / annexb / no-aud / no-hrd / info / hash=0 / no-temporal-layers / open-gop / min-keyint=24 / keyint=400 / gop-lookahead=0 / bframes=8 / b-adapt=2 / b-pyramid / bframe-bias=0 / rc-lookahead=100 / lookahead-slices=4 / scenecut=40 / radl=0 / no-intra-refresh / ctu=32 / min-cu-size=8 / no-rect / no-amp / max-tu-size=16 / tu-inter-depth=1 / tu-intra-depth=1 / limit-tu=0 / rdoq-level=2 / dynamic-rd=0.00 / no-ssim-rd / signhide / no-tskip / nr-intra=0 / nr-inter=0 / no-constrained-intra / no-strong-intra-smoothing / max-merge=2 / limit-refs=3 / limit-modes / me=3 / subme=5 / merange=57 / temporal-mvp / weightp / weightb / no-analyze-src-pics / deblock=-3:0 / no-sao / no-sao-non-deblock / rd=4 / no-early-skip / rskip / no-fast-intra / no-tskip-fast / no-cu-lossless / no-b-intra / no-splitrd-skip / rdpenalty=0 / psy-rd=2.50 / psy-rdoq=0.00 / no-rd-refine / no-lossless / cbqpoffs=0 / crqpoffs=0 / rc=crf / crf=24.0 / qcomp=0.60 / qpstep=4 / stats-write=0 / stats-read=0 / ipratio=1.40 / pbratio=1.30 / aq-mode=3 / aq-strength=1.00 / cutree / zone-count=0 / no-strict-cbr / qg-size=32 / no-rc-grain / qpmax=69 / qpmin=0 / no-const-vbv / sar=0 / overscan=0 / videoformat=5 / range=0 / colorprim=1 / transfer=1 / colormatrix=1 / chromaloc=0 / display-window=0 / max-cll=0,0 / min-luma=0 / max-luma=1023 / log2-max-poc-lsb=8 / vui-timing-info / vui-hrd-info / slices=1 / no-opt-qp-pps / no-opt-ref-list-length-pps / no-multi-pass-opt-rps / scenecut-bias=0.05 / no-opt-cu-delta-qp / aq-motion / no-hdr / no-hdr-opt / no-dhdr10-opt / no-idr-recovery-sei / analysis-reuse-level=8 / scale-factor=0 / refine-intra=0 / refine-inter=0 / refine-mv=0 / no-limit-sao / ctu-info=0 / no-lowpass-dct / refine-mv-type=0 / copy-pic=1 / max-ausize-factor=1.0 / no-dynamic-refine / no-single-sei 
Default : Yes 
Forced : No 
Color range : Limited 
Color primaries : BT.709 
Transfer characteristics : BT.709 
Matrix coefficients : BT.709 

Audio 
ID : 2 
Format : AAC 
Format/Info : Advanced Audio Codec 
Format profile : LC 
Codec ID : A_AAC 
Duration : 2 h 41 min 
Bit rate : 479 kb/s 
Channel(s) : 6 channels 
Channel positions : Front: L C R, Side: L R, LFE 
Sampling rate : 48.0 kHz 
Frame rate : 46.875 FPS (1024 spf) 
Compression mode : Lossy 
Delay relative to video : 20 ms 
Stream size : 553 MiB (15%) 
Language : Hindi 
Default : No 
Forced : No 

Subtitle 
ID : 3 
Format : PGS 
Muxing mode : zlib 
Codec ID : S_HDMV/PGS 
Codec ID/Info : Picture based subtitle format used on BDs/HD-DVDs 
Duration : 2 h 31 min 
Bit rate : 27.5 kb/s 
Count of elements : 2965 
Stream size : 29.8 MiB (1%) 
Language : English 
Default : No 
Forced : No 

Menu 
00:00:00.000 : en:1. Beginning / Beginning of Journey 
00:04:31.417 : en:2. Khan at San Francisco Airport 
00:09:40.000 : en:3. Good People and Bad People 
00:21:47.417 : en:4. Ammi's Death 
00:27:45.417 : en:5. Khan Meets Mandira 
00:33:31.000 : en:6. Tere Naina Tere Naina 
00:39:58.000 : en:7. Marry Me 
00:46:01.417 : en:8. Sameer's Museum Visit 
00:55:57.625 : en:9. Mandira Proposes 
00:57:55.000 : en:10. Sajdaa 
01:03:21.000 : en:11. 9/11 Attack 
01:10:36.417 : en:12. Hum Honge Kamayab 
01:21:40.000 : en:13. Sameer at the Hospital 
01:27:10.000 : en:14. Mandira Asks Khan to Leave 
01:33:07.000 : en:15. Noor E Khuda 
01:41:40.000 : en:16. Khan Meets Mama Jenny 
01:47:41.000 : en:17. We Shall Overcome 
01:52:04.000 : en:18. Faizal Rehman Provocation 
01:56:58.000 : en:19. Khan Arrested 
02:09:53.625 : en:20. Tere Naina 
02:15:36.000 : en:21. Storm in Goeorgia 
02:24:17.000 : en:22. Reese's Confession 
02:27:05.625 : en:23. Mandira Meets Khan 
02:31:33.000 : en:24. End of Journey / End (Credits)

Screencaps

Download

File: My Name Is Khan (2010) (1080p BluRay x265 Natty).mkv (3.7 GB)

Movie: Google Drive

Leave a Reply