Music and Lyrics 2007 (1080p Bluray x265 HEVC 10bit AAC 5.1 Tigole)

Info

Image result for Music and Lyrics 2007

Plot: A washed up singer is given a couple days to compose a chart-topping hit for an aspiring teen sensation. Though he’s never written a decent lyric in his life, he sparks with an offbeat younger woman with a flair for words.

Mediainfo

General
Unique ID                                : 187552019718795067376594057002469057867 (0x8D193480D2866DDAA7E88DC1CA40654B)
Complete name                            : Music and Lyrics 2007 (1080p x265 10bit Tigole).mkv
Format                                   : Matroska
Format version                           : Version 4 / Version 2
File size                                : 1.72 GiB
Duration                                 : 1 h 44 min
Overall bit rate                         : 2 372 kb/s
Encoded date                             : UTC 2016-07-13 16:29:19
Writing application                      : mkvmerge v9.2.0 ('Photograph') 64bit
Writing library                          : libebml v1.3.3 + libmatroska v1.4.4

Video
ID                                       : 1
Format                                   : HEVC
Format/Info                              : High Efficiency Video Coding
Format profile                           : Main [email protected]@Main
Codec ID                                 : V_MPEGH/ISO/HEVC
Duration                                 : 1 h 44 min
Bit rate                                 : 2 042 kb/s
Width                                    : 1 920 pixels
Height                                   : 1 080 pixels
Display aspect ratio                     : 16:9
Frame rate mode                          : Constant
Frame rate                               : 23.976 (24000/1001) FPS
Color space                              : YUV
Chroma subsampling                       : 4:2:0
Bit depth                                : 10 bits
Bits/(Pixel*Frame)                       : 0.041
Stream size                              : 1.48 GiB (86%)
Writing library                          : x265 1.9+200-6098ba3e0cf16b11:[Windows][GCC 5.3.0][64 bit] 10bit
Encoding settings                        : wpp / ctu=64 / min-cu-size=8 / max-tu-size=32 / tu-intra-depth=1 / tu-inter-depth=1 / me=1 / subme=2 / merange=57 / no-rect / no-amp / max-merge=2 / temporal-mvp / no-early-skip / recursion-skip / rdpenalty=0 / no-tskip / no-tskip-fast / strong-intra-smoothing / no-lossless / no-cu-lossless / no-constrained-intra / no-fast-intra / open-gop / no-temporal-layers / interlace=0 / keyint=250 / min-keyint=23 / scenecut=40 / rc-lookahead=20 / lookahead-slices=6 / bframes=4 / bframe-bias=0 / b-adapt=2 / ref=3 / limit-refs=3 / no-limit-modes / weightp / no-weightb / aq-mode=1 / qg-size=32 / aq-strength=1.00 / cbqpoffs=0 / crqpoffs=0 / rd=3 / psy-rd=2.00 / rdoq-level=0 / psy-rdoq=0.00 / no-rd-refine / signhide / deblock=0:0 / sao / no-sao-non-deblock / b-pyramid / cutree / no-intra-refresh / rc=2 / pass / bitrate=2041 / qcomp=0.60 / qpmin=0 / qpmax=51 / qpstep=4 / cplxblur=20.0 / qblur=0.5 / ipratio=1.40 / pbratio=1.30
Default                                  : Yes
Forced                                   : No

Audio
ID                                       : 2
Format                                   : AAC
Format/Info                              : Advanced Audio Codec
Format profile                           : LC
Codec ID                                 : A_AAC
Duration                                 : 1 h 44 min
Bit rate                                 : 328 kb/s
Channel(s)                               : 6 channels
Channel positions                        : Front: L C R, Side: L R, LFE
Sampling rate                            : 48.0 kHz
Frame rate                               : 46.875 FPS (1024 spf)
Compression mode                         : Lossy
Delay relative to video                  : 20 ms
Stream size                              : 244 MiB (14%)
Language                                 : English
Default                                  : No
Forced                                   : No

Text
ID                                       : 3
Format                                   : UTF-8
Codec ID                                 : S_TEXT/UTF8
Codec ID/Info                            : UTF-8 Plain Text
Duration                                 : 1 h 36 min
Bit rate                                 : 92 b/s
Count of elements                        : 1481
Stream size                              : 64.9 KiB (0%)
Language                                 : English
Default                                  : No
Forced                                   : No

Menu
00:00:00.000                             : en:Pop Goes My Heart
00:03:01.181                             : en:Battle of Has-Beens
00:05:30.497                             : en:Plant Lady
00:09:14.053                             : en:A Song By Friday
00:13:51.998                             : en:Ever Done Any Writing?
00:18:16.429                             : en:Meaningless Kiss
00:22:41.527                             : en:Love Autopsy
00:27:05.290                             : en:Change the Subject
00:31:59.417                             : en:Imitation Writer
00:37:08.393                             : en:Stay Focused
00:39:57.061                             : en:Way Back Into Love(1)
00:46:00.758                             : en:Bathroom Break
00:50:02.166                             : en:Shoving Mismatch
00:53:06.850                             : en:Feeling Much Better
00:56:23.547                             : en:Everyone Clapping?
01:02:11.394                             : en:Dinner at Rhonda's
01:06:48.171                             : en:Can't Work This Way
01:11:58.314                             : en:Just Business
01:17:13.462                             : en:Spot On
01:21:36.892                             : en:Sophie Chooses Florida
01:25:13.275                             : en:Just One Night
01:29:19.354                             : en:Don't Write Me Off
01:33:10.752                             : en:Way Back Into Love (2)
01:37:46.027                             : en:End Credits

Download

File: Music and Lyrics 2007 (1080p x265 10bit Tigole).mkv (1.72 GB)

Movie: Google Drive

1 thought on “Music and Lyrics 2007 (1080p Bluray x265 HEVC 10bit AAC 5.1 Tigole)

  1. Thank you very much for uploading this. I was looking for this encode by Tigole. I have found a torrent for this encode on a public torrent website but there was no seeders. I thought I would almost never get this encode and would have to make do with other encodes. I do not know how you manage to get this encode but I am really happy to get this encode.

Leave a Reply