Miracle on 34th Street (1947) (1080p BluRay x265 HEVC 10bit AAC 5.1 FreetheFish)

Info

Image result for Miracle on 34th Street (1947) poster

Plot: Kris Kringle, seemingly the embodiment of Santa Claus, is asked to portray the jolly old fellow at Macy’s following his performance in the Thanksgiving Day parade. His portrayal is so complete many begin to question if he truly is Santa Claus while others question his sanity.

Encode

Source:

Release: 
Miracle on 34th Street_t01.mkv (27.96 GB)

Mediainfo

General 
Format : Matroska 
Format version : Version 4 / Version 2 
File size : 4.79 GiB 
Duration : 1 h 36 min 
Overall bit rate : 7 112 kb/s 
Movie name : Miracle on 34th Street 
Encoded date : UTC 2018-12-21 17:58:32 
Writing application : mkvmerge v20.0.0 ('I Am The Sun') 64-bit 
Writing library : libebml v1.3.5 + libmatroska v1.4.8 

Video 
ID : 1 
Format : HEVC 
Format/Info : High Efficiency Video Coding 
Format profile : Main [email protected]@Main 
Codec ID : V_MPEGH/ISO/HEVC 
Duration : 1 h 36 min 
Bit rate : 5 000 kb/s 
Width : 1 480 pixels 
Height : 1 080 pixels 
Display aspect ratio : 1.370 
Frame rate mode : Constant 
Frame rate : 23.976 (24000/1001) FPS 
Color space : YUV 
Chroma subsampling : 4:2:0 
Bit depth : 10 bits 
Bits/(Pixel*Frame) : 0.130 
Stream size : 3.37 GiB (70%) 
Writing library : x265 2.9+2-7e978ed93d60:[Windows][MSVC 1915][64 bit] 10bit 
Encoding settings : cpuid=1111039 / frame-threads=5 / numa-pools=32,0 / wpp / no-pmode / no-pme / no-psnr / no-ssim / log-level=2 / input-csp=1 / input-res=1480x1080 / interlace=0 / total-frames=138688 / level-idc=0 / high-tier=1 / uhd-bd=0 / ref=5 / no-allow-non-conformance / no-repeat-headers / annexb / no-aud / no-hrd / info / hash=0 / no-temporal-layers / open-gop / min-keyint=23 / keyint=250 / gop-lookahead=0 / bframes=8 / b-adapt=2 / b-pyramid / bframe-bias=0 / rc-lookahead=30 / lookahead-slices=0 / scenecut=40 / radl=0 / no-intra-refresh / ctu=64 / min-cu-size=8 / no-rect / no-amp / max-tu-size=32 / tu-inter-depth=1 / tu-intra-depth=1 / limit-tu=0 / rdoq-level=2 / dynamic-rd=0.00 / no-ssim-rd / signhide / no-tskip / nr-intra=0 / nr-inter=0 / no-constrained-intra / no-strong-intra-smoothing / max-merge=3 / limit-refs=3 / limit-modes / me=3 / subme=7 / merange=57 / temporal-mvp / weightp / weightb / no-analyze-src-pics / deblock=0:0 / sao / no-sao-non-deblock / rd=6 / no-early-skip / rskip / no-fast-intra / no-tskip-fast / no-cu-lossless / b-intra / no-splitrd-skip / rdpenalty=0 / psy-rd=2.00 / psy-rdoq=1.00 / no-rd-refine / no-lossless / cbqpoffs=0 / crqpoffs=0 / rc=abr / bitrate=5000 / qcomp=0.60 / qpstep=4 / stats-write=0 / stats-read=2 / cplxblur=20.0 / qblur=0.5 / ipratio=1.40 / pbratio=1.30 / aq-mode=3 / aq-strength=1.00 / cutree / zone-count=0 / no-strict-cbr / qg-size=32 / no-rc-grain / qpmax=69 / qpmin=0 / no-const-vbv / sar=0 / overscan=0 / videoformat=5 / range=0 / colorprim=2 / transfer=2 / colormatrix=2 / chromaloc=0 / display-window=0 / max-cll=0,0 / min-luma=0 / max-luma=1023 / log2-max-poc-lsb=8 / vui-timing-info / vui-hrd-info / slices=1 / no-opt-qp-pps / no-opt-ref-list-length-pps / no-multi-pass-opt-rps / scenecut-bias=0.05 / no-opt-cu-delta-qp / aq-motion / no-hdr / no-hdr-opt / no-dhdr10-opt / no-idr-recovery-sei / analysis-reuse-level=5 / scale-factor=0 / refine-intra=0 / refine-inter=0 / refine-mv=0 / no-limit-sao / ctu-info=0 / no-lowpass-dct / refine-mv-type=0 / copy-pic=1 / max-ausize-factor=1.0 / no-dynamic-refine / no-single-sei 
Default : Yes 
Forced : No 

Audio #1 
ID : 2 
Format : AAC 
Format/Info : Advanced Audio Codec 
Format profile : LC 
Codec ID : A_AAC 
Duration : 1 h 36 min 
Bit rate : 411 kb/s 
Channel(s) : 6 channels 
Channel positions : Front: L C R, Side: L R, LFE 
Sampling rate : 48.0 kHz 
Frame rate : 46.875 FPS (1024 spf) 
Compression mode : Lossy 
Delay relative to video : 20 ms 
Stream size : 283 MiB (6%) 
Language : English 
Default : Yes 
Forced : No 

Audio #2 
ID : 3 
Format : AAC 
Format/Info : Advanced Audio Codec 
Format profile : LC 
Codec ID : A_AAC 
Duration : 1 h 36 min 
Bit rate : 288 kb/s 
Channel(s) : 6 channels 
Channel positions : Front: L C R, Side: L R, LFE 
Sampling rate : 48.0 kHz 
Frame rate : 46.875 FPS (1024 spf) 
Compression mode : Lossy 
Delay relative to video : 20 ms 
Stream size : 195 MiB (4%) 
Language : Spanish 
Default : No 
Forced : No 

Audio #3 
ID : 4 
Format : AAC 
Format/Info : Advanced Audio Codec 
Format profile : HE-AAC / LC 
Codec ID : A_AAC 
Duration : 1 h 36 min 
Bit rate : 192 kb/s 
Channel(s) : 6 channels 
Channel positions : Front: L C R, Side: L R, LFE 
Sampling rate : 48.0 kHz / 24.0 kHz 
Frame rate : 23.438 FPS (1024 spf) 
Compression mode : Lossy 
Delay relative to video : 40 ms 
Stream size : 132 MiB (3%) 
Language : Japanese 
Default : No 
Forced : No 

Audio #4 
ID : 5 
Format : AAC 
Format/Info : Advanced Audio Codec 
Format profile : HE-AAC / LC 
Codec ID : A_AAC 
Duration : 1 h 36 min 
Bit rate : 192 kb/s 
Channel(s) : 6 channels 
Channel positions : Front: L C R, Side: L R, LFE 
Sampling rate : 48.0 kHz / 24.0 kHz 
Frame rate : 23.438 FPS (1024 spf) 
Compression mode : Lossy 
Delay relative to video : 40 ms 
Stream size : 132 MiB (3%) 
Language : Portuguese 
Default : No 
Forced : No 

Audio #5 
ID : 6 
Format : AAC 
Format/Info : Advanced Audio Codec 
Format profile : HE-AAC / LC 
Codec ID : A_AAC 
Duration : 1 h 36 min 
Bit rate : 192 kb/s 
Channel(s) : 6 channels 
Channel positions : Front: L C R, Side: L R, LFE 
Sampling rate : 48.0 kHz / 24.0 kHz 
Frame rate : 23.438 FPS (1024 spf) 
Compression mode : Lossy 
Delay relative to video : 40 ms 
Stream size : 132 MiB (3%) 
Language : French 
Default : No 
Forced : No 

Audio #6 
ID : 7 
Format : AAC 
Format/Info : Advanced Audio Codec 
Format profile : HE-AAC / LC 
Codec ID : A_AAC 
Duration : 1 h 36 min 
Bit rate : 192 kb/s 
Channel(s) : 6 channels 
Channel positions : Front: L C R, Side: L R, LFE 
Sampling rate : 48.0 kHz / 24.0 kHz 
Frame rate : 23.438 FPS (1024 spf) 
Compression mode : Lossy 
Delay relative to video : 40 ms 
Stream size : 132 MiB (3%) 
Language : German 
Default : No 
Forced : No 

Audio #7 
ID : 8 
Format : AAC 
Format/Info : Advanced Audio Codec 
Format profile : HE-AAC / LC 
Codec ID : A_AAC 
Duration : 1 h 36 min 
Bit rate : 192 kb/s 
Channel(s) : 6 channels 
Channel positions : Front: L C R, Side: L R, LFE 
Sampling rate : 48.0 kHz / 24.0 kHz 
Frame rate : 23.438 FPS (1024 spf) 
Compression mode : Lossy 
Delay relative to video : 40 ms 
Stream size : 132 MiB (3%) 
Language : Italian 
Default : No 
Forced : No 

Audio #8 
ID : 9 
Format : AAC 
Format/Info : Advanced Audio Codec 
Format profile : HE-AAC / LC 
Codec ID : A_AAC 
Duration : 1 h 36 min 
Bit rate : 192 kb/s 
Channel(s) : 6 channels 
Channel positions : Front: L C R, Side: L R, LFE 
Sampling rate : 48.0 kHz / 24.0 kHz 
Frame rate : 23.438 FPS (1024 spf) 
Compression mode : Lossy 
Delay relative to video : 40 ms 
Stream size : 132 MiB (3%) 
Language : Russian 
Default : No 
Forced : No 

Audio #9 
ID : 10 
Format : AAC 
Format/Info : Advanced Audio Codec 
Format profile : HE-AAC / LC 
Codec ID : A_AAC 
Duration : 1 h 36 min 
Bit rate : 80.0 kb/s 
Channel(s) : 2 channels 
Channel positions : Front: L R 
Sampling rate : 48.0 kHz / 24.0 kHz 
Frame rate : 23.438 FPS (1024 spf) 
Compression mode : Lossy 
Delay relative to video : 40 ms 
Stream size : 55.2 MiB (1%) 
Title : Commentary with actress Maureen O'Hara 
Language : English 
Default : No 
Forced : No 

Subtitle #1 
ID : 11 
Format : VobSub 
Muxing mode : zlib 
Codec ID : S_VOBSUB 
Codec ID/Info : Picture based subtitle format used on DVDs 
Duration : 1 h 34 min 
Bit rate : 14.7 kb/s 
Count of elements : 1377 
Stream size : 9.98 MiB (0%) 
Language : English 
Default : No 
Forced : No 

Subtitle #2 
ID : 12 
Format : VobSub 
Muxing mode : zlib 
Codec ID : S_VOBSUB 
Codec ID/Info : Picture based subtitle format used on DVDs 
Duration : 1 h 35 min 
Bit rate : 13.6 kb/s 
Count of elements : 1401 
Stream size : 9.31 MiB (0%) 
Language : Spanish 
Default : No 
Forced : No 

Subtitle #3 
ID : 13 
Format : VobSub 
Muxing mode : zlib 
Codec ID : S_VOBSUB 
Codec ID/Info : Picture based subtitle format used on DVDs 
Duration : 1 h 34 min 
Bit rate : 13.0 kb/s 
Count of elements : 1398 
Stream size : 8.83 MiB (0%) 
Language : French 
Default : No 
Forced : No 

Subtitle #4 
ID : 14 
Format : VobSub 
Muxing mode : zlib 
Codec ID : S_VOBSUB 
Codec ID/Info : Picture based subtitle format used on DVDs 
Duration : 1 h 34 min 
Bit rate : 13.4 kb/s 
Count of elements : 1441 
Stream size : 9.05 MiB (0%) 
Language : Portuguese 
Default : No 
Forced : No 

Subtitle #5 
ID : 15 
Format : VobSub 
Muxing mode : zlib 
Codec ID : S_VOBSUB 
Codec ID/Info : Picture based subtitle format used on DVDs 
Duration : 1 h 34 min 
Bit rate : 10.8 kb/s 
Count of elements : 970 
Stream size : 7.28 MiB (0%) 
Language : Danish 
Default : No 
Forced : No 

Subtitle #6 
ID : 16 
Format : VobSub 
Muxing mode : zlib 
Codec ID : S_VOBSUB 
Codec ID/Info : Picture based subtitle format used on DVDs 
Duration : 1 h 34 min 
Bit rate : 12.1 kb/s 
Count of elements : 1390 
Stream size : 8.19 MiB (0%) 
Language : Finnish 
Default : No 
Forced : No 

Subtitle #7 
ID : 17 
Format : VobSub 
Muxing mode : zlib 
Codec ID : S_VOBSUB 
Codec ID/Info : Picture based subtitle format used on DVDs 
Duration : 1 h 34 min 
Bit rate : 14.4 kb/s 
Count of elements : 1400 
Stream size : 9.75 MiB (0%) 
Language : German 
Default : No 
Forced : No 

Subtitle #8 
ID : 18 
Format : VobSub 
Muxing mode : zlib 
Codec ID : S_VOBSUB 
Codec ID/Info : Picture based subtitle format used on DVDs 
Duration : 1 h 35 min 
Bit rate : 14.9 kb/s 
Count of elements : 1412 
Stream size : 10.2 MiB (0%) 
Language : Italian 
Default : No 
Forced : No 

Subtitle #9 
ID : 19 
Format : VobSub 
Muxing mode : zlib 
Codec ID : S_VOBSUB 
Codec ID/Info : Picture based subtitle format used on DVDs 
Duration : 1 h 34 min 
Bit rate : 11.6 kb/s 
Count of elements : 1022 
Stream size : 7.85 MiB (0%) 
Language : Dutch 
Default : No 
Forced : No 

Subtitle #10 
ID : 20 
Format : VobSub 
Muxing mode : zlib 
Codec ID : S_VOBSUB 
Codec ID/Info : Picture based subtitle format used on DVDs 
Duration : 1 h 34 min 
Bit rate : 11.5 kb/s 
Count of elements : 970 
Stream size : 7.77 MiB (0%) 
Language : Norwegian Bokmal 
Default : No 
Forced : No 

Subtitle #11 
ID : 21 
Format : VobSub 
Muxing mode : zlib 
Codec ID : S_VOBSUB 
Codec ID/Info : Picture based subtitle format used on DVDs 
Duration : 1 h 36 min 
Bit rate : 16.0 kb/s 
Count of elements : 1633 
Stream size : 11.0 MiB (0%) 
Language : Russian 
Default : No 
Forced : No 

Subtitle #12 
ID : 22 
Format : VobSub 
Muxing mode : zlib 
Codec ID : S_VOBSUB 
Codec ID/Info : Picture based subtitle format used on DVDs 
Duration : 1 h 34 min 
Bit rate : 11.3 kb/s 
Count of elements : 1399 
Stream size : 7.67 MiB (0%) 
Language : Spanish 
Default : No 
Forced : No 

Subtitle #13 
ID : 23 
Format : VobSub 
Muxing mode : zlib 
Codec ID : S_VOBSUB 
Codec ID/Info : Picture based subtitle format used on DVDs 
Duration : 1 h 34 min 
Bit rate : 10.8 kb/s 
Count of elements : 970 
Stream size : 7.29 MiB (0%) 
Language : Swedish 
Default : No 
Forced : No 

Subtitle #14 
ID : 24 
Format : VobSub 
Muxing mode : zlib 
Codec ID : S_VOBSUB 
Codec ID/Info : Picture based subtitle format used on DVDs 
Duration : 1 h 34 min 
Bit rate : 10.9 kb/s 
Count of elements : 1418 
Stream size : 7.36 MiB (0%) 
Language : Greek 
Default : No 
Forced : No 

Subtitle #15 
ID : 25 
Format : VobSub 
Muxing mode : zlib 
Codec ID : S_VOBSUB 
Codec ID/Info : Picture based subtitle format used on DVDs 
Duration : 1 h 35 min 
Bit rate : 11.2 kb/s 
Count of elements : 1411 
Stream size : 7.70 MiB (0%) 
Language : Chinese 
Default : No 
Forced : No 

Subtitle #16 
ID : 26 
Format : VobSub 
Muxing mode : zlib 
Codec ID : S_VOBSUB 
Codec ID/Info : Picture based subtitle format used on DVDs 
Duration : 1 h 34 min 
Bit rate : 14.5 kb/s 
Count of elements : 1408 
Stream size : 9.81 MiB (0%) 
Language : Icelandic 
Default : No 
Forced : No 

Subtitle #17 
ID : 27 
Format : VobSub 
Muxing mode : zlib 
Codec ID : S_VOBSUB 
Codec ID/Info : Picture based subtitle format used on DVDs 
Duration : 1 h 34 min 
Bit rate : 8 836 b/s 
Count of elements : 1416 
Stream size : 5.98 MiB (0%) 
Language : Hebrew 
Default : No 
Forced : No 

Subtitle #18 
ID : 28 
Format : VobSub 
Muxing mode : zlib 
Codec ID : S_VOBSUB 
Codec ID/Info : Picture based subtitle format used on DVDs 
Duration : 1 h 35 min 
Bit rate : 8 141 b/s 
Count of elements : 1468 
Stream size : 5.59 MiB (0%) 
Language : Korean 
Default : No 
Forced : No 

Subtitle #19 
ID : 29 
Format : VobSub 
Muxing mode : zlib 
Codec ID : S_VOBSUB 
Codec ID/Info : Picture based subtitle format used on DVDs 
Duration : 1 h 34 min 
Bit rate : 10.1 kb/s 
Count of elements : 1401 
Stream size : 6.81 MiB (0%) 
Language : Polish 
Default : No 
Forced : No 

Subtitle #20 
ID : 30 
Format : VobSub 
Muxing mode : zlib 
Codec ID : S_VOBSUB 
Codec ID/Info : Picture based subtitle format used on DVDs 
Duration : 1 h 34 min 
Bit rate : 14.2 kb/s 
Count of elements : 1410 
Stream size : 9.60 MiB (0%) 
Language : Portuguese 
Default : No 
Forced : No 

Subtitle #21 
ID : 31 
Format : VobSub 
Muxing mode : zlib 
Codec ID : S_VOBSUB 
Codec ID/Info : Picture based subtitle format used on DVDs 
Duration : 1 h 34 min 
Bit rate : 10.2 kb/s 
Count of elements : 1411 
Stream size : 6.93 MiB (0%) 
Language : Chinese 
Default : No 
Forced : No 

Subtitle #22 
ID : 32 
Format : VobSub 
Muxing mode : zlib 
Codec ID : S_VOBSUB 
Codec ID/Info : Picture based subtitle format used on DVDs 
Duration : 1 h 34 min 
Bit rate : 10.8 kb/s 
Count of elements : 1414 
Stream size : 7.30 MiB (0%) 
Language : Thai 
Default : No 
Forced : No 

Subtitle #23 
ID : 33 
Format : VobSub 
Muxing mode : zlib 
Codec ID : S_VOBSUB 
Codec ID/Info : Picture based subtitle format used on DVDs 
Duration : 1 h 36 min 
Bit rate : 15.7 kb/s 
Count of elements : 1656 
Stream size : 10.8 MiB (0%) 
Language : Ukrainian 
Default : No 
Forced : No 

Menu 
00:00:00.000 : en:Chapter 01 
00:01:28.505 : en:Chapter 02 
00:02:56.342 : en:Chapter 03 
00:06:26.427 : en:Chapter 04 
00:07:58.519 : en:Chapter 05 
00:13:43.364 : en:Chapter 06 
00:16:19.103 : en:Chapter 07 
00:19:36.133 : en:Chapter 08 
00:26:18.785 : en:Chapter 09 
00:31:53.786 : en:Chapter 10 
00:37:59.652 : en:Chapter 11 
00:43:06.417 : en:Chapter 12 
00:46:49.515 : en:Chapter 13 
00:50:52.424 : en:Chapter 14 
00:53:26.912 : en:Chapter 15 
00:56:03.610 : en:Chapter 16 
01:01:53.793 : en:Chapter 17 
01:06:35.866 : en:Chapter 18 
01:10:33.270 : en:Chapter 19 
01:14:09.611 : en:Chapter 20 
01:22:25.690 : en:Chapter 21 
01:26:15.753 : en:Chapter 22 
01:31:13.384 : en:Chapter 23 
01:33:52.335 : en:Chapter 24

Download

File: Miracle on 34th Street (1947) (1080p BluRay x265 FreetheFish).mkv (4.8 GB)

Movie: Google Drive

Featurettes: Google Drive

Leave a Reply