Men in Black (1997) (1080p BluRay x265 HEVC 10bit AAC 7.1 Joy)

Info

Image result for Men in Black (1997)

Plot: Men in Black follows the exploits of agents Kay and Jay, members of a top-secret organization established to monitor and police alien activity on Earth. The two Men in Black find themselves in the middle of the deadly plot by an intergalactic terrorist who has arrived on Earth to assassinate two ambassadors from opposing galaxies. In order to prevent worlds from colliding, the MiB must track down the terrorist and prevent the destruction of Earth. It’s just another typical day for the Men in Black.

Encode

Source:

Release: 
Men.in.Black.1997.2160p.BluRay.x265.10bit.SDR.DTS-HD.MA.TrueHD.7.1.Atmos-SWTYBLZ.mkv (55.56 GBs)

Mediainfo

General 
Format : Matroska 
Format version : Version 4 / Version 2 
File size : 1.35 GiB 
Duration : 1 h 37 min 
Overall bit rate : 1 966 kb/s 
Movie name : Encoder Output\Men in Black 1997 (1080p x265 10bit S67 Joy)[UTR] 
Encoded date : UTC 2018-08-04 21:58:25 
Writing application : mkvmerge v24.0.0 ('Beyond The Pale') 64-bit 
Writing library : libebml v1.3.6 + libmatroska v1.4.9 
Cover : Yes 
Attachments : cover.jpg 
Writing frontend : StaxRip v1.8.2.0 

Video 
ID : 1 
Format : HEVC 
Format/Info : High Efficiency Video Coding 
Format profile : Main [email protected]@High 
Codec ID : V_MPEGH/ISO/HEVC 
Duration : 1 h 37 min 
Bit rate : 1 496 kb/s 
Width : 1 920 pixels 
Height : 1 024 pixels 
Display aspect ratio : 1.85:1 
Frame rate mode : Constant 
Frame rate : 23.976 (24000/1001) FPS 
Color space : YUV 
Chroma subsampling : 4:2:0 
Bit depth : 10 bits 
Bits/(Pixel*Frame) : 0.032 
Stream size : 1.02 GiB (76%) 
Writing library : x265 2.8+19-bcdc610cf5f0:[Windows][MSVC 1914][64 bit] 10bit 
Encoding settings : cpuid=1111039 / frame-threads=3 / numa-pools=8 / wpp / no-pmode / no-pme / no-psnr / ssim / log-level=2 / input-csp=1 / input-res=1920x1024 / interlace=0 / total-frames=140928 / level-idc=0 / high-tier=1 / uhd-bd=0 / ref=4 / no-allow-non-conformance / no-repeat-headers / annexb / no-aud / no-hrd / info / hash=0 / no-temporal-layers / open-gop / min-keyint=23 / keyint=250 / gop-lookahead=0 / bframes=8 / b-adapt=2 / b-pyramid / bframe-bias=0 / rc-lookahead=100 / lookahead-slices=4 / scenecut=40 / radl=0 / no-intra-refresh / ctu=64 / min-cu-size=8 / rect / amp / max-tu-size=32 / tu-inter-depth=1 / tu-intra-depth=1 / limit-tu=0 / rdoq-level=2 / dynamic-rd=0.00 / ssim-rd / signhide / no-tskip / nr-intra=0 / nr-inter=0 / no-constrained-intra / strong-intra-smoothing / max-merge=3 / limit-refs=3 / limit-modes / me=3 / subme=3 / merange=57 / temporal-mvp / weightp / weightb / analyze-src-pics / deblock=0:0 / sao / sao-non-deblock / rd=6 / no-early-skip / rskip / no-fast-intra / no-tskip-fast / no-cu-lossless / b-intra / no-splitrd-skip / rdpenalty=0 / psy-rd=0.00 / psy-rdoq=1.50 / no-rd-refine / no-lossless / cbqpoffs=0 / crqpoffs=0 / rc=abr / bitrate=1500 / qcomp=0.60 / qpstep=4 / stats-write=0 / stats-read=2 / cplxblur=20.0 / qblur=0.5 / vbv-maxrate=4500 / vbv-bufsize=13500 / vbv-init=0.9 / ipratio=1.40 / pbratio=1.30 / aq-mode=3 / aq-strength=0.90 / cutree / zone-count=0 / no-strict-cbr / qg-size=32 / no-rc-grain / qpmax=69 / qpmin=0 / no-const-vbv / sar=0 / overscan=0 / videoformat=5 / range=0 / colorprim=2 / transfer=2 / colormatrix=2 / chromaloc=0 / display-window=0 / max-cll=0,0 / min-luma=0 / max-luma=1023 / log2-max-poc-lsb=8 / vui-timing-info / vui-hrd-info / slices=1 / no-opt-qp-pps / no-opt-ref-list-length-pps / multi-pass-opt-rps / scenecut-bias=0.05 / no-opt-cu-delta-qp / no-aq-motion / no-hdr / no-hdr-opt / no-dhdr10-opt / no-idr-recovery-sei / analysis-reuse-level=10 / scale-factor=0 / refine-intra=0 / refine-inter=0 / refine-mv=0 / limit-sao / ctu-info=0 / no-lowpass-dct / refine-mv-type=0 / copy-pic=1 / max-ausize-factor=1.0 / no-dynamic-refine / no-single-sei 
Default : Yes 
Forced : No 

Audio 
ID : 2 
Format : AAC 
Format/Info : Advanced Audio Codec 
Format profile : HE-AAC / LC 
Codec ID : A_AAC 
Duration : 1 h 37 min 
Bit rate : 299 kb/s 
Channel(s) : 7 channels 
Channel(s)_Original : 8 channels 
Channel positions : Front: L C R, Side: L R, Back: L R, LFE 
Sampling rate : 48.0 kHz / 24.0 kHz 
Frame rate : 23.438 FPS (1024 spf) 
Compression mode : Lossy 
Delay relative to video : 31 ms 
Stream size : 209 MiB (15%) 
Language : English 
Default : No 
Forced : No 

Subtitle #1 
ID : 3 
Format : PGS 
Muxing mode : zlib 
Codec ID : S_HDMV/PGS 
Codec ID/Info : Picture based subtitle format used on BDs/HD-DVDs 
Duration : 1 h 37 min 
Bit rate : 41.2 kb/s 
Count of elements : 2834 
Stream size : 28.8 MiB (2%) 
Language : English 
Default : No 
Forced : No 

Subtitle #2 
ID : 4 
Format : UTF-8 
Codec ID : S_TEXT/UTF8 
Codec ID/Info : UTF-8 Plain Text 
Duration : 1 h 27 min 
Bit rate : 64 b/s 
Count of elements : 1073 
Stream size : 41.3 KiB (0%) 
Language : English 
Default : No 
Forced : No 

Subtitle #3 
ID : 5 
Format : VobSub 
Muxing mode : zlib 
Codec ID : S_VOBSUB 
Codec ID/Info : Picture based subtitle format used on DVDs 
Duration : 1 h 37 min 
Bit rate : 12.4 kb/s 
Count of elements : 1422 
Stream size : 8.64 MiB (1%) 
Language : English 
Default : No 
Forced : No 

Subtitle #4 
ID : 6 
Format : VobSub 
Muxing mode : zlib 
Codec ID : S_VOBSUB 
Codec ID/Info : Picture based subtitle format used on DVDs 
Duration : 1 h 34 min 
Bit rate : 10.1 kb/s 
Count of elements : 1069 
Stream size : 6.86 MiB (0%) 
Language : English 
Default : No 
Forced : No 

Subtitle #5 
ID : 7 
Format : VobSub 
Muxing mode : zlib 
Codec ID : S_VOBSUB 
Codec ID/Info : Picture based subtitle format used on DVDs 
Duration : 1 h 37 min 
Bit rate : 12.4 kb/s 
Count of elements : 1422 
Stream size : 8.65 MiB (1%) 
Language : English 
Default : No 
Forced : No 

Subtitle #6 
ID : 8 
Format : VobSub 
Muxing mode : zlib 
Codec ID : S_VOBSUB 
Codec ID/Info : Picture based subtitle format used on DVDs 
Duration : 1 h 34 min 
Bit rate : 10.1 kb/s 
Count of elements : 1070 
Stream size : 6.87 MiB (0%) 
Language : English 
Default : No 
Forced : No 

Subtitle #7 
ID : 9 
Format : VobSub 
Muxing mode : zlib 
Codec ID : S_VOBSUB 
Codec ID/Info : Picture based subtitle format used on DVDs 
Duration : 1 h 27 min 
Bit rate : 5 630 b/s 
Count of elements : 1094 
Stream size : 3.51 MiB (0%) 
Language : Arabic 
Default : No 
Forced : No 

Subtitle #8 
ID : 10 
Format : VobSub 
Muxing mode : zlib 
Codec ID : S_VOBSUB 
Codec ID/Info : Picture based subtitle format used on DVDs 
Duration : 1 h 27 min 
Bit rate : 8 289 b/s 
Count of elements : 1109 
Stream size : 5.17 MiB (0%) 
Language : Chinese 
Default : No 
Forced : No 

Subtitle #9 
ID : 11 
Format : VobSub 
Muxing mode : zlib 
Codec ID : S_VOBSUB 
Codec ID/Info : Picture based subtitle format used on DVDs 
Duration : 1 h 27 min 
Bit rate : 8 136 b/s 
Count of elements : 1082 
Stream size : 5.08 MiB (0%) 
Language : Chinese 
Default : No 
Forced : No 

Subtitle #10 
ID : 12 
Format : VobSub 
Muxing mode : zlib 
Codec ID : S_VOBSUB 
Codec ID/Info : Picture based subtitle format used on DVDs 
Duration : 1 h 27 min 
Bit rate : 8 783 b/s 
Count of elements : 1091 
Stream size : 5.48 MiB (0%) 
Language : Czech 
Default : No 
Forced : No 

Subtitle #11 
ID : 13 
Format : VobSub 
Muxing mode : zlib 
Codec ID : S_VOBSUB 
Codec ID/Info : Picture based subtitle format used on DVDs 
Duration : 1 h 27 min 
Bit rate : 8 166 b/s 
Count of elements : 758 
Stream size : 5.10 MiB (0%) 
Language : Danish 
Default : No 
Forced : No 

Subtitle #12 
ID : 14 
Format : VobSub 
Muxing mode : zlib 
Codec ID : S_VOBSUB 
Codec ID/Info : Picture based subtitle format used on DVDs 
Duration : 1 h 27 min 
Bit rate : 8 134 b/s 
Count of elements : 763 
Stream size : 5.07 MiB (0%) 
Language : Dutch 
Default : No 
Forced : No 

Subtitle #13 
ID : 15 
Format : VobSub 
Muxing mode : zlib 
Codec ID : S_VOBSUB 
Codec ID/Info : Picture based subtitle format used on DVDs 
Duration : 1 h 27 min 
Bit rate : 7 935 b/s 
Count of elements : 736 
Stream size : 4.95 MiB (0%) 
Language : Finnish 
Default : No 
Forced : No 

Subtitle #14 
ID : 16 
Format : VobSub 
Muxing mode : zlib 
Codec ID : S_VOBSUB 
Codec ID/Info : Picture based subtitle format used on DVDs 
Duration : 1 h 34 min 
Bit rate : 7 479 b/s 
Count of elements : 1091 
Stream size : 5.08 MiB (0%) 
Language : French 
Default : No 
Forced : No 

Subtitle #15 
ID : 17 
Format : VobSub 
Muxing mode : zlib 
Codec ID : S_VOBSUB 
Codec ID/Info : Picture based subtitle format used on DVDs 
Duration : 1 h 27 min 
Bit rate : 11.1 kb/s 
Count of elements : 1126 
Stream size : 6.96 MiB (1%) 
Language : German 
Default : No 
Forced : No 

Subtitle #16 
ID : 18 
Format : VobSub 
Muxing mode : zlib 
Codec ID : S_VOBSUB 
Codec ID/Info : Picture based subtitle format used on DVDs 
Duration : 1 h 27 min 
Bit rate : 9 629 b/s 
Count of elements : 1091 
Stream size : 6.06 MiB (0%) 
Language : Greek 
Default : No 
Forced : No 

Subtitle #17 
ID : 19 
Format : VobSub 
Muxing mode : zlib 
Codec ID : S_VOBSUB 
Codec ID/Info : Picture based subtitle format used on DVDs 
Duration : 1 h 27 min 
Bit rate : 8 423 b/s 
Count of elements : 1114 
Stream size : 5.25 MiB (0%) 
Language : Hungarian 
Default : No 
Forced : No 

Subtitle #18 
ID : 20 
Format : VobSub 
Muxing mode : zlib 
Codec ID : S_VOBSUB 
Codec ID/Info : Picture based subtitle format used on DVDs 
Duration : 1 h 27 min 
Bit rate : 8 407 b/s 
Count of elements : 1137 
Stream size : 5.24 MiB (0%) 
Language : Italian 
Default : No 
Forced : No 

Subtitle #19 
ID : 21 
Format : VobSub 
Muxing mode : zlib 
Codec ID : S_VOBSUB 
Codec ID/Info : Picture based subtitle format used on DVDs 
Duration : 1 h 36 min 
Bit rate : 6 451 b/s 
Count of elements : 1136 
Stream size : 4.48 MiB (0%) 
Language : Korean 
Default : No 
Forced : No 

Subtitle #20 
ID : 22 
Format : VobSub 
Muxing mode : zlib 
Codec ID : S_VOBSUB 
Codec ID/Info : Picture based subtitle format used on DVDs 
Duration : 1 h 27 min 
Bit rate : 7 563 b/s 
Count of elements : 752 
Stream size : 4.72 MiB (0%) 
Language : Norwegian Bokmal 
Default : No 
Forced : No 

Subtitle #21 
ID : 23 
Format : VobSub 
Muxing mode : zlib 
Codec ID : S_VOBSUB 
Codec ID/Info : Picture based subtitle format used on DVDs 
Duration : 1 h 27 min 
Bit rate : 8 013 b/s 
Count of elements : 1018 
Stream size : 5.00 MiB (0%) 
Language : Polish 
Default : No 
Forced : No 

Subtitle #22 
ID : 24 
Format : VobSub 
Muxing mode : zlib 
Codec ID : S_VOBSUB 
Codec ID/Info : Picture based subtitle format used on DVDs 
Duration : 1 h 29 min 
Bit rate : 9 310 b/s 
Count of elements : 1107 
Stream size : 5.94 MiB (0%) 
Language : Portuguese 
Default : No 
Forced : No 

Subtitle #23 
ID : 25 
Format : VobSub 
Muxing mode : zlib 
Codec ID : S_VOBSUB 
Codec ID/Info : Picture based subtitle format used on DVDs 
Duration : 1 h 29 min 
Bit rate : 10.1 kb/s 
Count of elements : 1127 
Stream size : 6.45 MiB (0%) 
Language : Portuguese 
Default : No 
Forced : No 

Subtitle #24 
ID : 26 
Format : VobSub 
Muxing mode : zlib 
Codec ID : S_VOBSUB 
Codec ID/Info : Picture based subtitle format used on DVDs 
Duration : 1 h 29 min 
Bit rate : 8 859 b/s 
Count of elements : 1125 
Stream size : 5.66 MiB (0%) 
Language : Romanian 
Default : No 
Forced : No 

Subtitle #25 
ID : 27 
Format : VobSub 
Muxing mode : zlib 
Codec ID : S_VOBSUB 
Codec ID/Info : Picture based subtitle format used on DVDs 
Duration : 1 h 29 min 
Bit rate : 9 540 b/s 
Count of elements : 1118 
Stream size : 6.09 MiB (0%) 
Language : Russian 
Default : No 
Forced : No 

Subtitle #26 
ID : 28 
Format : VobSub 
Muxing mode : zlib 
Codec ID : S_VOBSUB 
Codec ID/Info : Picture based subtitle format used on DVDs 
Duration : 1 h 34 min 
Bit rate : 8 993 b/s 
Count of elements : 1092 
Stream size : 6.11 MiB (0%) 
Language : Slovak 
Default : No 
Forced : No 

Subtitle #27 
ID : 29 
Format : VobSub 
Muxing mode : zlib 
Codec ID : S_VOBSUB 
Codec ID/Info : Picture based subtitle format used on DVDs 
Duration : 1 h 27 min 
Bit rate : 7 973 b/s 
Count of elements : 1103 
Stream size : 4.97 MiB (0%) 
Language : Spanish 
Default : No 
Forced : No 

Subtitle #28 
ID : 30 
Format : VobSub 
Muxing mode : zlib 
Codec ID : S_VOBSUB 
Codec ID/Info : Picture based subtitle format used on DVDs 
Duration : 1 h 29 min 
Bit rate : 9 877 b/s 
Count of elements : 1086 
Stream size : 6.30 MiB (0%) 
Language : Spanish 
Default : No 
Forced : No 

Subtitle #29 
ID : 31 
Format : VobSub 
Muxing mode : zlib 
Codec ID : S_VOBSUB 
Codec ID/Info : Picture based subtitle format used on DVDs 
Duration : 1 h 34 min 
Bit rate : 7 020 b/s 
Count of elements : 731 
Stream size : 4.77 MiB (0%) 
Language : Swedish 
Default : No 
Forced : No 

Subtitle #30 
ID : 32 
Format : VobSub 
Muxing mode : zlib 
Codec ID : S_VOBSUB 
Codec ID/Info : Picture based subtitle format used on DVDs 
Duration : 1 h 27 min 
Bit rate : 8 917 b/s 
Count of elements : 1109 
Stream size : 5.56 MiB (0%) 
Language : Thai 
Default : No 
Forced : No 

Subtitle #31 
ID : 33 
Format : VobSub 
Muxing mode : zlib 
Codec ID : S_VOBSUB 
Codec ID/Info : Picture based subtitle format used on DVDs 
Duration : 1 h 27 min 
Bit rate : 9 337 b/s 
Count of elements : 1106 
Stream size : 5.83 MiB (0%) 
Language : Turkish 
Default : No 
Forced : No 

Subtitle #32 
ID : 34 
Format : VobSub 
Muxing mode : zlib 
Codec ID : S_VOBSUB 
Codec ID/Info : Picture based subtitle format used on DVDs 
Duration : 1 h 27 min 
Bit rate : 6 226 b/s 
Count of elements : 1057 
Stream size : 3.88 MiB (0%) 
Language : Japanese 
Default : No 
Forced : No 

Menu 
00:00:00.000 : en:Chapter 1 
00:09:46.419 : en:Chapter 2 
00:12:46.807 : en:Chapter 3 
00:18:12.341 : en:Chapter 4 
00:25:31.446 : en:Chapter 5 
00:29:14.544 : en:Chapter 6 
00:37:19.195 : en:Chapter 7 
00:43:18.554 : en:Chapter 8 
00:49:58.328 : en:Chapter 9 
00:54:29.391 : en:Chapter 10 
01:00:51.522 : en:Chapter 11 
01:06:24.689 : en:Chapter 12 
01:08:55.548 : en:Chapter 13 
01:14:56.909 : en:Chapter 14 
01:19:39.149 : en:Chapter 15 
01:29:49.634 : en:Chapter 16

Download

File: Men in Black 1997 (1080p x265 10bit S67 Joy).mkv (1.3 GB)

Download: Google Drive

1 thought on “Men in Black (1997) (1080p BluRay x265 HEVC 10bit AAC 7.1 Joy)

  1. Joy just using too low of a bitrate which is an unacceptable for the least for good looking rips, its almost like the new yify for x265. Horrible.

Leave a Reply