Ladies vs. Ricky Bahl (2011) (1080p BluRay x265 HEVC 10bit AAC 5.1 Hindi Natty)

Info

Plot: Ladies Vs Ricky Bahl movie is a fun-filled rom-com where a smooth and charming conman, Ricky Bahl, cons girls for a living but finally meets his match. Dimple Chaddha, a brash 19 year old Delhi college girl falls in love with Sunny Singh, a fitness trainer. Raina Parulekar, a 28 year old independent and successful corporate woman in Mumbai does business with an art dealer Deven Shah. Saira Rashid, a 24 year old sweet, hard working widow in Lucknow makes a new friend, the shy Iqbal Khan. Three very different girls who each get taken for a lot of money by each of these three men. The problem is that it is actually just one man – Ricky Bahl who got the looks and he’s got the charm. He could have the pick of the ladies. But love isn’t Ricky’s priority – money is! But a chance encounter unites the three girls and, discovering the truth, they hatch a plan to get their money back. So now unsuspecting Ricky is about to meet his match in the shapely form of Ishika Desai

Encode

Source:

Ladies.vs..Ricky.Bahl.•.2011.•.BD50.•.Untouched.BluRay.•.YrF.•.DRs | 39 GB | Hon3yHD

Mediainfo

General 
Format : Matroska 
Format version : Version 4 / Version 2 
File size : 3.81 GiB 
Duration : 2 h 19 min 
Overall bit rate : 3 905 kb/s 
Movie name : LVRB 
Encoded date : UTC 2018-08-12 07:45:41 
Writing application : mkvmerge v25.0.0 ('Prog Noir') 64-bit 
Writing library : libebml v1.3.6 + libmatroska v1.4.9 
Writing frontend : Natty 

Video 
ID : 1 
Format : HEVC 
Format/Info : High Efficiency Video Coding 
Format profile : Main [email protected]@Main 
Codec ID : V_MPEGH/ISO/HEVC 
Duration : 2 h 19 min 
Bit rate : 3 385 kb/s 
Width : 1 920 pixels 
Height : 816 pixels 
Display aspect ratio : 2.35:1 
Frame rate mode : Constant 
Frame rate : 24.000 FPS 
Color space : YUV 
Chroma subsampling : 4:2:0 
Bit depth : 10 bits 
Bits/(Pixel*Frame) : 0.090 
Stream size : 3.30 GiB (87%) 
Writing library : x265 2.8+58-d17bc7714ed2:[Windows][MSVC 1914][64 bit] 10bit 
Encoding settings : cpuid=1111039 / frame-threads=2 / numa-pools=4 / wpp / no-pmode / no-pme / no-psnr / no-ssim / log-level=2 / input-csp=1 / input-res=1920x816 / interlace=0 / total-frames=201142 / level-idc=0 / high-tier=1 / uhd-bd=0 / ref=5 / no-allow-non-conformance / no-repeat-headers / annexb / no-aud / no-hrd / info / hash=0 / no-temporal-layers / open-gop / min-keyint=24 / keyint=400 / gop-lookahead=0 / bframes=8 / b-adapt=2 / b-pyramid / bframe-bias=0 / rc-lookahead=100 / lookahead-slices=4 / scenecut=40 / radl=0 / no-intra-refresh / ctu=32 / min-cu-size=8 / no-rect / no-amp / max-tu-size=16 / tu-inter-depth=1 / tu-intra-depth=1 / limit-tu=0 / rdoq-level=2 / dynamic-rd=0.00 / no-ssim-rd / signhide / no-tskip / nr-intra=0 / nr-inter=0 / no-constrained-intra / no-strong-intra-smoothing / max-merge=2 / limit-refs=3 / limit-modes / me=3 / subme=5 / merange=57 / temporal-mvp / weightp / weightb / no-analyze-src-pics / deblock=-4:-4 / no-sao / no-sao-non-deblock / rd=4 / no-early-skip / rskip / no-fast-intra / no-tskip-fast / no-cu-lossless / no-b-intra / no-splitrd-skip / rdpenalty=0 / psy-rd=3.00 / psy-rdoq=0.00 / no-rd-refine / no-lossless / cbqpoffs=0 / crqpoffs=0 / rc=crf / crf=24.0 / qcomp=0.60 / qpstep=4 / stats-write=0 / stats-read=0 / ipratio=1.40 / pbratio=1.30 / aq-mode=3 / aq-strength=0.90 / cutree / zone-count=0 / no-strict-cbr / qg-size=32 / no-rc-grain / qpmax=69 / qpmin=0 / no-const-vbv / sar=0 / overscan=0 / videoformat=5 / range=0 / colorprim=1 / transfer=1 / colormatrix=1 / chromaloc=0 / display-window=0 / max-cll=0,0 / min-luma=0 / max-luma=1023 / log2-max-poc-lsb=8 / vui-timing-info / vui-hrd-info / slices=1 / no-opt-qp-pps / no-opt-ref-list-length-pps / no-multi-pass-opt-rps / scenecut-bias=0.05 / no-opt-cu-delta-qp / no-aq-motion / no-hdr / no-hdr-opt / no-dhdr10-opt / no-idr-recovery-sei / analysis-reuse-level=8 / scale-factor=0 / refine-intra=0 / refine-inter=0 / refine-mv=0 / no-limit-sao / ctu-info=0 / no-lowpass-dct / refine-mv-type=0 / copy-pic=1 / max-ausize-factor=1.0 / no-dynamic-refine / no-single-sei 
Default : Yes 
Forced : No 
Color range : Limited 
Color primaries : BT.709 
Transfer characteristics : BT.709 
Matrix coefficients : BT.709 

Audio 
ID : 2 
Format : AAC 
Format/Info : Advanced Audio Codec 
Format profile : LC 
Codec ID : A_AAC 
Duration : 2 h 19 min 
Bit rate : 496 kb/s 
Channel(s) : 6 channels 
Channel positions : Front: L C R, Side: L R, LFE 
Sampling rate : 48.0 kHz 
Frame rate : 46.875 FPS (1024 spf) 
Compression mode : Lossy 
Delay relative to video : 20 ms 
Stream size : 496 MiB (13%) 
Language : Hindi 
Default : No 
Forced : No 

Subtitle #1 
ID : 3 
Format : PGS 
Muxing mode : zlib 
Codec ID : S_HDMV/PGS 
Codec ID/Info : Picture based subtitle format used on BDs/HD-DVDs 
Duration : 2 h 14 min 
Bit rate : 32.5 kb/s 
Count of elements : 3724 
Stream size : 31.3 MiB (1%) 
Language : English 
Default : Yes 
Forced : No 

Subtitle #2 
ID : 4 
Format : PGS 
Muxing mode : zlib 
Codec ID : S_HDMV/PGS 
Codec ID/Info : Picture based subtitle format used on BDs/HD-DVDs 
Duration : 2 h 14 min 
Bit rate : 18.5 kb/s 
Count of elements : 3732 
Stream size : 17.8 MiB (0%) 
Language : Arabic 
Default : No 
Forced : No 

Menu 
00:00:00.000 : en:Chapter 01 
00:03:05.041 : en:Chapter 02 
00:07:24.833 : en:Chapter 03 
00:14:10.041 : en:Chapter 04 
00:22:36.375 : en:Chapter 05 
00:27:14.875 : en:Chapter 06 
00:33:26.375 : en:Chapter 07 
00:40:17.458 : en:Chapter 08 
00:43:21.250 : en:Chapter 09 
00:50:58.541 : en:Chapter 10 
00:54:32.875 : en:Chapter 11 
00:57:44.166 : en:Chapter 12 
01:05:38.958 : en:Chapter 13 
01:12:51.541 : en:Chapter 14 
01:26:49.625 : en:Chapter 15 
01:36:46.000 : en:Chapter 16 
01:43:02.583 : en:Chapter 17 
01:47:00.041 : en:Chapter 18 
01:53:40.791 : en:Chapter 19 
01:59:27.583 : en:Chapter 20 
02:07:35.875 : en:Chapter 21 
02:15:54.208 : en:Chapter 22

Screencaps

Download

File: Ladies vs. Ricky Bahl (2011) (1080p BluRay x265 Natty).mkv (3.8 GB)

Movie: Google Drive

2 thoughts on “Ladies vs. Ricky Bahl (2011) (1080p BluRay x265 HEVC 10bit AAC 5.1 Hindi Natty)

Leave a Reply