Kuch Kuch Hota Hai (1998) (1080p BluRay x265 HEVC 10bit AAC 5.1 Hindi Natty)

Info

Plot: Rahul & Anjali are best friends that fall into a romance triangle once Tina arrives. Rahul & Tina marry & have a child, which Tina names Anjali, but Tina dies in childbirth. Anjali, Rahul’s daughter, receives a series of letters written by mom prior to her death & the final letter describes her namesake. Anjali, Rahul’s daughter, tries to re-unite her father back with his college best friend.

Encode

Source:

Kuch.Kuch.Hota.Hai.1998.Untouched.BluRay.SONY.All.Regions.DRs | 39 GB | Hon3yHD

Mediainfo

General 
Format : Matroska 
Format version : Version 4 / Version 2 
File size : 4.55 GiB 
Duration : 3 h 5 min 
Overall bit rate : 3 519 kb/s 
Encoded date : UTC 2018-06-20 00:57:16 
Writing application : mkvmerge v24.0.0 ('Beyond The Pale') 64-bit 
Writing library : libebml v1.3.6 + libmatroska v1.4.9 
Writing frontend : Natty 

Video 
ID : 1 
Format : HEVC 
Format/Info : High Efficiency Video Coding 
Format profile : Main [email protected]@Main 
Codec ID : V_MPEGH/ISO/HEVC 
Duration : 3 h 5 min 
Bit rate : 3 045 kb/s 
Width : 1 920 pixels 
Height : 818 pixels 
Display aspect ratio : 2.35:1 
Frame rate mode : Constant 
Frame rate : 24.000 FPS 
Color space : YUV 
Chroma subsampling : 4:2:0 
Bit depth : 10 bits 
Bits/(Pixel*Frame) : 0.081 
Stream size : 3.94 GiB (87%) 
Writing library : x265 2.8+21-a8a5ccf5aaf7:[Windows][MSVC 1914][64 bit] 10bit 
Encoding settings : cpuid=1111039 / frame-threads=2 / numa-pools=4 / wpp / no-pmode / no-pme / no-psnr / no-ssim / log-level=2 / input-csp=1 / input-res=1920x818 / interlace=0 / total-frames=266474 / level-idc=0 / high-tier=1 / uhd-bd=0 / ref=5 / no-allow-non-conformance / no-repeat-headers / annexb / no-aud / no-hrd / info / hash=0 / no-temporal-layers / open-gop / min-keyint=24 / keyint=400 / gop-lookahead=0 / bframes=8 / b-adapt=2 / b-pyramid / bframe-bias=0 / rc-lookahead=100 / lookahead-slices=4 / scenecut=40 / radl=0 / no-intra-refresh / ctu=32 / min-cu-size=8 / no-rect / no-amp / max-tu-size=16 / tu-inter-depth=1 / tu-intra-depth=1 / limit-tu=0 / rdoq-level=2 / dynamic-rd=0.00 / no-ssim-rd / signhide / no-tskip / nr-intra=0 / nr-inter=0 / no-constrained-intra / no-strong-intra-smoothing / max-merge=2 / limit-refs=3 / limit-modes / me=3 / subme=5 / merange=57 / temporal-mvp / weightp / weightb / no-analyze-src-pics / deblock=-3:0 / no-sao / no-sao-non-deblock / rd=4 / no-early-skip / rskip / no-fast-intra / no-tskip-fast / no-cu-lossless / no-b-intra / no-splitrd-skip / rdpenalty=0 / psy-rd=2.00 / psy-rdoq=0.00 / no-rd-refine / no-lossless / cbqpoffs=0 / crqpoffs=0 / rc=crf / crf=24.0 / qcomp=0.60 / qpstep=4 / stats-write=0 / stats-read=0 / ipratio=1.40 / pbratio=1.30 / aq-mode=3 / aq-strength=1.00 / cutree / zone-count=0 / no-strict-cbr / qg-size=32 / no-rc-grain / qpmax=69 / qpmin=0 / no-const-vbv / sar=0 / overscan=0 / videoformat=5 / range=0 / colorprim=1 / transfer=1 / colormatrix=1 / chromaloc=0 / display-window=0 / max-cll=0,0 / min-luma=0 / max-luma=1023 / log2-max-poc-lsb=8 / vui-timing-info / vui-hrd-info / slices=1 / no-opt-qp-pps / no-opt-ref-list-length-pps / no-multi-pass-opt-rps / scenecut-bias=0.05 / no-opt-cu-delta-qp / aq-motion / no-hdr / no-hdr-opt / no-dhdr10-opt / no-idr-recovery-sei / analysis-reuse-level=8 / scale-factor=0 / refine-intra=0 / refine-inter=0 / refine-mv=0 / no-limit-sao / ctu-info=0 / no-lowpass-dct / refine-mv-type=0 / copy-pic=1 / max-ausize-factor=1.0 / no-dynamic-refine / no-single-sei 
Default : Yes 
Forced : No 
Color range : Limited 
Color primaries : BT.709 
Transfer characteristics : BT.709 
Matrix coefficients : BT.709 

Audio 
ID : 2 
Format : AAC 
Format/Info : Advanced Audio Codec 
Format profile : LC 
Codec ID : A_AAC 
Duration : 3 h 5 min 
Bit rate : 466 kb/s 
Channel(s) : 6 channels 
Channel positions : Front: L C R, Side: L R, LFE 
Sampling rate : 48.0 kHz 
Frame rate : 46.875 FPS (1024 spf) 
Compression mode : Lossy 
Delay relative to video : 20 ms 
Stream size : 616 MiB (13%) 
Language : Hindi 
Default : No 
Forced : No 

Subtitle 
ID : 3 
Format : PGS 
Muxing mode : zlib 
Codec ID : S_HDMV/PGS 
Codec ID/Info : Picture based subtitle format used on BDs/HD-DVDs 
Duration : 2 h 56 min 
Bit rate : 28.5 kb/s 
Count of elements : 3107 
Stream size : 35.9 MiB (1%) 
Language : English 
Default : No 
Forced : No 

Menu 
00:00:00.000 : en:Chapter 01 
00:03:16.416 : en:Chapter 02 
00:08:12.666 : en:Chapter 03 
00:11:07.291 : en:Chapter 04 
00:19:07.000 : en:Chapter 05 
00:20:22.583 : en:Chapter 06 
00:23:43.791 : en:Chapter 07 
00:36:56.125 : en:Chapter 08 
00:43:47.500 : en:Chapter 09 
00:50:12.208 : en:Chapter 10 
00:53:24.333 : en:Chapter 11 
01:03:23.875 : en:Chapter 12 
01:09:24.583 : en:Chapter 13 
01:18:49.375 : en:Chapter 14 
01:21:05.791 : en:Chapter 15 
01:24:33.166 : en:Chapter 16 
01:29:54.541 : en:Chapter 17 
01:34:51.791 : en:Chapter 18 
01:42:01.916 : en:Chapter 19 
01:45:09.708 : en:Chapter 20 
01:47:23.625 : en:Chapter 21 
01:52:50.875 : en:Chapter 22 
01:55:31.458 : en:Chapter 23 
02:01:26.708 : en:Chapter 24 
02:05:13.083 : en:Chapter 25 
02:07:25.041 : en:Chapter 26 
02:08:28.666 : en:Chapter 27 
02:12:03.916 : en:Chapter 28 
02:17:54.000 : en:Chapter 29 
02:35:18.625 : en:Chapter 30 
02:45:38.208 : en:Chapter 31 
02:48:53.791 : en:Chapter 32 
02:51:06.375 : en:Chapter 33 
02:54:29.291 : en:Chapter 34 
02:55:47.666 : en:Chapter 35 
03:01:17.916 : en:Chapter 36 
03:02:41.625 : en:Chapter 37

Screencaps

Download

File: Kuch Kuch Hota Hai (1998) (1080p BluRay x265 Natty).mkv (4.5 GB)

Download: Google Drive

5 thoughts on “Kuch Kuch Hota Hai (1998) (1080p BluRay x265 HEVC 10bit AAC 5.1 Hindi Natty)

  1. Plz add GDrive link. Plz i have searched everywhere but unable to find KKHH in 1080p. Plz bro i need this movie. Kindly add GDrive link plzzzzzz

Leave a Reply