Kiss Kiss Bang Bang 2005 (1080p Bluray x265 HEVC 10bit AAC 5.1 Tigole)

Info

Image result for Kiss Kiss Bang Bang 2005

Plot: A murder mystery brings together a private eye, a struggling actress, and a thief masquerading as an actor.

Mediainfo

General
Unique ID                                : 241728541508467717220160705387209119491 (0xB5DB3941276C4D8286585F2971275703)
Complete name                            : Kiss Kiss Bang Bang 2005 (1080p x265 10bit Tigole).mkv
Format                                   : Matroska
Format version                           : Version 4 / Version 2
File size                                : 2.09 GiB
Duration                                 : 1 h 42 min
Overall bit rate                         : 2 909 kb/s
Encoded date                             : UTC 2017-02-06 14:49:28
Writing application                      : mkvmerge v9.6.0 ('Slave To Your Mind') 64bit
Writing library                          : libebml v1.3.4 + libmatroska v1.4.5

Video
ID                                       : 1
Format                                   : HEVC
Format/Info                              : High Efficiency Video Coding
Format profile                           : Main [email protected]@Main
Codec ID                                 : V_MPEGH/ISO/HEVC
Duration                                 : 1 h 42 min
Bit rate                                 : 2 480 kb/s
Width                                    : 1 920 pixels
Height                                   : 792 pixels
Display aspect ratio                     : 2.40:1
Frame rate mode                          : Constant
Frame rate                               : 23.976 (24000/1001) FPS
Color space                              : YUV
Chroma subsampling                       : 4:2:0
Bit depth                                : 10 bits
Bits/(Pixel*Frame)                       : 0.068
Stream size                              : 1.78 GiB (85%)
Writing library                          : x265 2.2+22-20217c8af8ac:[Windows][GCC 6.2.0][64 bit] 10bit
Encoding settings                        : cpuid=1173503 / frame-threads=3 / numa-pools=8 / wpp / no-pmode / no-pme / no-psnr / no-ssim / log-level=2 / input-csp=1 / input-res=1920x792 / interlace=0 / total-frames=147744 / level-idc=0 / high-tier=1 / uhd-bd=0 / ref=4 / no-allow-non-conformance / no-repeat-headers / annexb / no-aud / no-hrd / info / hash=0 / no-temporal-layers / open-gop / min-keyint=23 / keyint=250 / bframes=4 / b-adapt=2 / b-pyramid / bframe-bias=0 / rc-lookahead=25 / lookahead-slices=4 / scenecut=40 / no-intra-refresh / ctu=64 / min-cu-size=8 / rect / no-amp / max-tu-size=32 / tu-inter-depth=1 / tu-intra-depth=1 / limit-tu=0 / rdoq-level=2 / signhide / no-tskip / nr-intra=0 / nr-inter=0 / no-constrained-intra / strong-intra-smoothing / max-merge=3 / limit-refs=3 / limit-modes / me=3 / subme=3 / merange=57 / temporal-mvp / weightp / no-weightb / no-analyze-src-pics / deblock=0:0 / sao / no-sao-non-deblock / rd=4 / no-early-skip / rskip / no-fast-intra / no-tskip-fast / no-cu-lossless / no-b-intra / rdpenalty=0 / psy-rd=2.00 / psy-rdoq=1.00 / no-rd-refine / analysis-mode=0 / no-lossless / cbqpoffs=0 / crqpoffs=0 / rc=abr / bitrate=2480 / qcomp=0.60 / qpstep=4 / stats-write=0 / stats-read=2 / cplxblur=20.0 / qblur=0.5 / ipratio=1.40 / pbratio=1.30 / aq-mode=2 / aq-strength=1.00 / cutree / zone-count=0 / no-strict-cbr / qg-size=32 / no-rc-grain / qpmax=69 / qpmin=0 / sar=0 / overscan=0 / videoformat=5 / range=0 / colorprim=2 / transfer=2 / colormatrix=2 / chromaloc=0 / display-window=0 / max-cll=0,0 / min-luma=0 / max-luma=1023 / log2-max-poc-lsb=8 / vui-timing-info / vui-hrd-info / slices=1 / opt-qp-pps / opt-ref-list-length-pps / no-multi-pass-opt-rps / scenecut-bias=0.05 / no-opt-cu-delta-qp / no-aq-motion
Default                                  : Yes
Forced                                   : No

Audio #1
ID                                       : 2
Format                                   : AAC
Format/Info                              : Advanced Audio Codec
Format profile                           : LC
Codec ID                                 : A_AAC
Duration                                 : 1 h 42 min
Bit rate                                 : 335 kb/s
Channel(s)                               : 6 channels
Channel positions                        : Front: L C R, Side: L R, LFE
Sampling rate                            : 48.0 kHz
Frame rate                               : 46.875 FPS (1024 spf)
Compression mode                         : Lossy
Delay relative to video                  : 20 ms
Stream size                              : 246 MiB (12%)
Language                                 : English
Default                                  : Yes
Forced                                   : No

Audio #2
ID                                       : 3
Format                                   : AAC
Format/Info                              : Advanced Audio Codec
Format profile                           : HE-AAC / LC
Codec ID                                 : A_AAC
Duration                                 : 1 h 42 min
Bit rate                                 : 66.2 kb/s
Channel(s)                               : 2 channels
Channel positions                        : Front: L R
Sampling rate                            : 48.0 kHz / 24.0 kHz
Frame rate                               : 23.438 FPS (1024 spf)
Compression mode                         : Lossy
Delay relative to video                  : 40 ms
Stream size                              : 48.3 MiB (2%)
Title                                    : Commentary
Language                                 : English
Default                                  : No
Forced                                   : No

Text #1
ID                                       : 4
Format                                   : VobSub
Muxing mode                              : zlib
Codec ID                                 : S_VOBSUB
Codec ID/Info                            : Picture based subtitle format used on DVDs
Duration                                 : 1 h 37 min
Bit rate                                 : 9 617 b/s
Count of elements                        : 1524
Stream size                              : 6.74 MiB (0%)
Language                                 : English
Default                                  : No
Forced                                   : No

Text #2
ID                                       : 5
Format                                   : VobSub
Muxing mode                              : zlib
Codec ID                                 : S_VOBSUB
Codec ID/Info                            : Picture based subtitle format used on DVDs
Duration                                 : 1 h 37 min
Bit rate                                 : 6 556 b/s
Count of elements                        : 1383
Stream size                              : 4.59 MiB (0%)
Language                                 : French
Default                                  : No
Forced                                   : No

Text #3
ID                                       : 6
Format                                   : VobSub
Muxing mode                              : zlib
Codec ID                                 : S_VOBSUB
Codec ID/Info                            : Picture based subtitle format used on DVDs
Duration                                 : 1 h 37 min
Bit rate                                 : 10.3 kb/s
Count of elements                        : 1554
Stream size                              : 7.25 MiB (0%)
Language                                 : German
Default                                  : No
Forced                                   : No

Text #4
ID                                       : 7
Format                                   : VobSub
Muxing mode                              : zlib
Codec ID                                 : S_VOBSUB
Codec ID/Info                            : Picture based subtitle format used on DVDs
Duration                                 : 1 h 32 min
Bit rate                                 : 60 b/s
Count of elements                        : 12
Stream size                              : 41.0 KiB (0%)
Title                                    : Forced
Language                                 : German
Default                                  : No
Forced                                   : No

Menu
00:00:00.000                             : en:Chapter 01
00:03:24.454                             : en:Chapter 02
00:08:24.504                             : en:Chapter 03
00:12:46.515                             : en:Chapter 04
00:17:19.288                             : en:Chapter 05
00:23:39.167                             : en:Chapter 06
00:25:27.776                             : en:Chapter 07
00:30:57.605                             : en:Chapter 08
00:33:34.929                             : en:Chapter 09
00:36:28.978                             : en:Chapter 10
00:38:38.733                             : en:Chapter 11
00:44:22.660                             : en:Chapter 12
00:46:42.090                             : en:Chapter 13
00:49:06.610                             : en:Chapter 14
00:52:15.298                             : en:Chapter 15
00:56:11.076                             : en:Chapter 16
00:59:23.601                             : en:Chapter 17
01:02:11.811                             : en:Chapter 18
01:05:45.566                             : en:Chapter 19
01:07:15.531                             : en:Chapter 20
01:11:07.888                             : en:Chapter 21
01:15:56.385                             : en:Chapter 22
01:19:11.830                             : en:Chapter 23
01:22:51.049                             : en:Chapter 24
01:26:11.040                             : en:Chapter 25
01:28:49.824                             : en:Chapter 26
01:32:10.399                             : en:Chapter 27
01:35:23.592                             : en:Chapter 28
01:38:30.321                             : en:Chapter 29

Download

File: Kiss Kiss Bang Bang 2005 (1080p x265 10bit Tigole).mkv (2.09 GB)

Movie: Google Drive

Featurettes: Google Drive

Leave a Reply