Kaminey (2009) (1080p BluRay x265 HEVC 10bit AAC 5.1 Hindi Natty)

Info

Plot: Guddu and Charlie are identical twins born and raised in the slums of Mumbai. They dream of leaving the squalor behind and moving into a life of prosperity and dignity. Though they look alike, the two are as different as chalk and cheese. One lisps, the other stammers. One is an honest, diligent social worker while the other hedges bets at a racecourse. The brothers want nothing to do with each other. But when Charlie gets mixed up in a deadly get-rich-quick scheme and Guddu realizes that the love of his life has unwittingly put a price on his head, their lives begin to collide. They find themselves facing rogue politicians, drug dealers and crooked cops. As they uncover a sinister plot laid out by the ‘political-police-underworld’ nexus, their stories finally converge to a point when they realize they only have each other.

Encode

Source:

KAMINEY (2009) UNTOUCHED BD50 1080P AVC DTS-HDMA 5.1 | 44 GB | DesiTorrents

Mediainfo

General 
Format : Matroska 
Format version : Version 4 / Version 2 
File size : 1.85 GiB 
Duration : 2 h 14 min 
Overall bit rate : 1 973 kb/s 
Movie name : Kaminey (2009) 
Encoded date : UTC 2018-10-25 13:46:40 
Writing application : mkvmerge v27.0.0 ('Metropolis') 64-bit 
Writing library : libebml v1.3.6 + libmatroska v1.4.9 
Writing frontend : Natty 

Video 
ID : 1 
Format : HEVC 
Format/Info : High Efficiency Video Coding 
Format profile : Main [email protected]@Main 
Codec ID : V_MPEGH/ISO/HEVC 
Duration : 2 h 14 min 
Bit rate : 1 525 kb/s 
Width : 1 914 pixels 
Height : 818 pixels 
Display aspect ratio : 2.35:1 
Frame rate mode : Constant 
Frame rate : 24.000 FPS 
Color space : YUV 
Chroma subsampling : 4:2:0 
Bit depth : 10 bits 
Bits/(Pixel*Frame) : 0.041 
Stream size : 1.43 GiB (77%) 
Writing library : x265 2.9+2-7e978ed93d60:[Windows][MSVC 1915][64 bit] 10bit 
Encoding settings : cpuid=1111039 / frame-threads=2 / numa-pools=4 / wpp / no-pmode / no-pme / no-psnr / no-ssim / log-level=2 / input-csp=1 / input-res=1914x818 / interlace=0 / total-frames=193294 / level-idc=0 / high-tier=1 / uhd-bd=0 / ref=5 / no-allow-non-conformance / no-repeat-headers / annexb / no-aud / no-hrd / info / hash=0 / no-temporal-layers / open-gop / min-keyint=24 / keyint=400 / gop-lookahead=0 / bframes=8 / b-adapt=2 / b-pyramid / bframe-bias=0 / rc-lookahead=80 / lookahead-slices=4 / scenecut=40 / radl=0 / no-intra-refresh / ctu=32 / min-cu-size=8 / no-rect / no-amp / max-tu-size=16 / tu-inter-depth=1 / tu-intra-depth=1 / limit-tu=0 / rdoq-level=2 / dynamic-rd=0.00 / no-ssim-rd / signhide / no-tskip / nr-intra=0 / nr-inter=0 / no-constrained-intra / no-strong-intra-smoothing / max-merge=2 / limit-refs=3 / limit-modes / me=3 / subme=5 / merange=57 / temporal-mvp / weightp / weightb / no-analyze-src-pics / deblock=-3:0 / no-sao / no-sao-non-deblock / rd=4 / no-early-skip / rskip / no-fast-intra / no-tskip-fast / no-cu-lossless / b-intra / no-splitrd-skip / rdpenalty=0 / psy-rd=3.00 / psy-rdoq=0.00 / no-rd-refine / no-lossless / cbqpoffs=0 / crqpoffs=0 / rc=crf / crf=22.0 / qcomp=0.50 / qpstep=4 / stats-write=0 / stats-read=0 / ipratio=1.40 / pbratio=1.30 / aq-mode=3 / aq-strength=1.00 / cutree / zone-count=0 / no-strict-cbr / qg-size=32 / no-rc-grain / qpmax=69 / qpmin=0 / no-const-vbv / sar=0 / overscan=0 / videoformat=5 / range=0 / colorprim=1 / transfer=1 / colormatrix=1 / chromaloc=0 / display-window=0 / max-cll=0,0 / min-luma=0 / max-luma=1023 / log2-max-poc-lsb=8 / vui-timing-info / vui-hrd-info / slices=1 / no-opt-qp-pps / no-opt-ref-list-length-pps / no-multi-pass-opt-rps / scenecut-bias=0.05 / no-opt-cu-delta-qp / no-aq-motion / no-hdr / no-hdr-opt / no-dhdr10-opt / no-idr-recovery-sei / analysis-reuse-level=8 / scale-factor=0 / refine-intra=0 / refine-inter=0 / refine-mv=0 / no-limit-sao / ctu-info=0 / no-lowpass-dct / refine-mv-type=0 / copy-pic=1 / max-ausize-factor=1.0 / no-dynamic-refine / no-single-sei 
Default : Yes 
Forced : No 
Color range : Limited 
Color primaries : BT.709 
Transfer characteristics : BT.709 
Matrix coefficients : BT.709 

Audio 
ID : 2 
Format : AAC 
Format/Info : Advanced Audio Codec 
Format profile : LC 
Codec ID : A_AAC 
Duration : 2 h 14 min 
Bit rate : 436 kb/s 
Channel(s) : 6 channels 
Channel positions : Front: L C R, Side: L R, LFE 
Sampling rate : 48.0 kHz 
Frame rate : 46.875 FPS (1024 spf) 
Compression mode : Lossy 
Delay relative to video : 20 ms 
Stream size : 419 MiB (22%) 
Language : Hindi 
Default : No 
Forced : No 

Subtitle 
ID : 3 
Format : PGS 
Muxing mode : zlib 
Codec ID : S_HDMV/PGS 
Codec ID/Info : Picture based subtitle format used on BDs/HD-DVDs 
Duration : 2 h 8 min 
Bit rate : 22.2 kb/s 
Count of elements : 2560 
Stream size : 20.5 MiB (1%) 
Language : English 
Default : No 
Forced : No 

Menu 
00:00:00.000 : en:Chapter 00 
00:01:23.375 : en:Chapter 01 
00:10:07.875 : en:Chapter 02 
00:13:30.291 : en:Chapter 03 
00:26:03.750 : en:Chapter 04 
00:42:21.458 : en:Chapter 05 
00:44:47.125 : en:Chapter 06 
00:46:09.750 : en:Chapter 07 
00:52:28.708 : en:Chapter 08 
00:53:51.583 : en:Chapter 09 
00:56:09.666 : en:Chapter 10 
01:00:02.666 : en:Chapter 11 
01:10:36.000 : en:Chapter 12 
01:21:21.375 : en:Chapter 13 
01:31:46.833 : en:Chapter 14 
01:37:09.625 : en:Chapter 15 
01:40:16.041 : en:Chapter 16 
01:51:01.375 : en:Chapter 17 
01:55:07.125 : en:Chapter 18 
01:56:11.750 : en:Chapter 19 
02:05:04.916 : en:Chapter 20 
02:09:46.208 : en:Chapter 21

Download

File: Kaminey (2009) (1080p BluRay x265 Natty).mkv (1.8 GB)

Movie: Google Drive

Leave a Reply