Kama Sutra A Tale of Love (1996) (1080p BluRay x265 HEVC 12bit AAC 2.0 Natty)

Info

Plot: Tara and Maya are two inseparable friends in India. Their tastes, habits, and hobbies are the same. Years later, the two have matured, but have maintained their friendship. Tara gets married to the local prince, Raj Singh, who soon succeeds the throne as the sole heir. After the marriage, Raj gets bored of Tara and starts seeking another female to satisfy his sexual needs. He notices Maya and is instantly attracted to her. He has her included as one of his courtesans, and is intimate with her. Watch what happens when Tara finds out and the extent she will go to keep her marriage intact.

Encode

Source:

Kama.Sutra:.A.Tale.of.Love.•.1996.•.BD25.•.Untouched.BluRay.•.DRs (21 GB) @ Hon3yHD

Mediainfo

General 
Format                                   : Matroska 
Format version                           : Version 4 / Version 2 
File size                                : 2.47 GiB 
Duration                                 : 1 h 51 min 
Overall bit rate                         : 3 179 kb/s 
Movie name                               : KAMASUTRA 
Encoded date                             : UTC 2017-11-14 05:27:40 
Writing application                      : mkvmerge v17.0.0 ('Be Ur Friend') 64-bit 
Writing library                          : libebml v1.3.5 + libmatroska v1.4.8 
Cover                                    : Yes 
Attachments                              : cover.jpg 
Writing frontend                         : Natty 

Video 
ID                                       : 1 
Format                                   : HEVC 
Format/Info                              : High Efficiency Video Coding 
Format profile                           : @[email protected] 
Codec ID                                 : V_MPEGH/ISO/HEVC 
Duration                                 : 1 h 51 min 
Bit rate                                 : 3 001 kb/s 
Width                                    : 1 920 pixels 
Height                                   : 1 080 pixels 
Display aspect ratio                     : 16:9 
Frame rate mode                          : Constant 
Frame rate                               : 24.000 FPS 
Color space                              : YUV 
Chroma subsampling                       : 4:2:0 
Bit depth                                : 12 bits 
Bits/(Pixel*Frame)                       : 0.060 
Stream size                              : 2.33 GiB (94%) 
Writing library                          : x265 2.5+38-8a121d8cc134:[Windows][MSVC 1911][64 bit] 12bit 
Encoding settings                        : cpuid=1173503 / frame-threads=2 / numa-pools=4 / wpp / no-pmode / no-pme / no-psnr / no-ssim / log-level=2 / csvfn=D:\Encoding\KS / A / Tale / of / Love / csv-log-level=0 / input-csp=1 / input-res=1920x1080 / interlace=0 / total-frames=160011 / level-idc=0 / high-tier=1 / uhd-bd=0 / ref=6 / no-allow-non-conformance / no-repeat-headers / annexb / no-aud / no-hrd / info / hash=0 / no-temporal-layers / open-gop / min-keyint=24 / keyint=400 / bframes=8 / b-adapt=2 / b-pyramid / bframe-bias=0 / rc-lookahead=100 / lookahead-slices=5 / scenecut=40 / no-intra-refresh / ctu=32 / min-cu-size=8 / no-rect / no-amp / max-tu-size=16 / tu-inter-depth=1 / tu-intra-depth=1 / limit-tu=0 / rdoq-level=2 / dynamic-rd=0.00 / no-ssim-rd / signhide / no-tskip / nr-intra=0 / nr-inter=0 / no-constrained-intra / no-strong-intra-smoothing / max-merge=2 / limit-refs=3 / limit-modes / me=3 / subme=5 / merange=57 / temporal-mvp / weightp / no-weightb / no-analyze-src-pics / deblock=-3:0 / no-sao / no-sao-non-deblock / rd=4 / no-early-skip / rskip / no-fast-intra / no-tskip-fast / no-cu-lossless / no-b-intra / no-splitrd-skip / rdpenalty=0 / psy-rd=2.00 / psy-rdoq=6.00 / no-rd-refine / analysis-reuse-mode=0 / no-lossless / cbqpoffs=0 / crqpoffs=0 / rc=abr / bitrate=3001 / qcomp=0.90 / qpstep=4 / stats-write=0 / stats-read=2 / cplxblur=20.0 / qblur=0.5 / ipratio=1.40 / pbratio=1.30 / aq-mode=3 / aq-strength=0.90 / cutree / zone-count=0 / no-strict-cbr / qg-size=16 / no-rc-grain / qpmax=69 / qpmin=0 / no-const-vbv / sar=0 / overscan=0 / videoformat=5 / range=1 / colorprim=1 / transfer=1 / colormatrix=1 / chromaloc=0 / display-window=0 / max-cll=0,0 / min-luma=0 / max-luma=4095 / log2-max-poc-lsb=8 / vui-timing-info / vui-hrd-info / slices=1 / opt-qp-pps / opt-ref-list-length-pps / multi-pass-opt-rps / scenecut-bias=0.05 / no-opt-cu-delta-qp / aq-motion / no-hdr / no-hdr-opt / no-dhdr10-opt / analysis-reuse-level=9 / scale-factor=0 / refine-intra=0 / refine-inter=0 / refine-mv=0 / no-limit-sao / ctu-info=0 / no-lowpass-dct 
Default                                  : Yes 
Forced                                   : No 
Color range                              : Full 
Color primaries                          : BT.709 
Transfer characteristics                 : BT.709 
Matrix coefficients                      : BT.709 

Audio 
ID                                       : 2 
Format                                   : AAC 
Format/Info                              : Advanced Audio Codec 
Format profile                           : LC 
Codec ID                                 : A_AAC 
Duration                                 : 1 h 51 min 
Bit rate                                 : 169 kb/s 
Channel(s)                               : 2 channels 
Channel positions                        : Front: L R 
Sampling rate                            : 48.0 kHz 
Frame rate                               : 46.875 FPS (1024 spf) 
Compression mode                         : Lossy 
Delay relative to video                  : 20 ms 
Stream size                              : 134 MiB (5%) 
Language                                 : English 
Default                                  : No 
Forced                                   : No 

Subtitle 
ID                                       : 3 
Format                                   : PGS 
Muxing mode                              : zlib 
Codec ID                                 : S_HDMV/PGS 
Codec ID/Info                            : Picture based subtitle format used on BDs/HD-DVDs 
Duration                                 : 1 h 44 min 
Bit rate                                 : 20.6 kb/s 
Count of elements                        : 1330 
Stream size                              : 15.4 MiB (1%) 
Language                                 : English 
Default                                  : No 
Forced                                   : No 

Menu 
00:00:00.000                             : en:Chapter 01 
00:02:47.166                             : en:Chapter 02 
00:05:21.458                             : en:Chapter 03 
00:08:32.083                             : en:Chapter 04 
00:11:41.666                             : en:Chapter 05 
00:14:17.416                             : en:Chapter 06 
00:16:17.125                             : en:Chapter 07 
00:20:40.125                             : en:Chapter 08 
00:23:29.666                             : en:Chapter 09 
00:27:13.666                             : en:Chapter 10 
00:32:27.583                             : en:Chapter 11 
00:33:54.916                             : en:Chapter 12 
00:35:57.833                             : en:Chapter 13 
00:38:26.333                             : en:Chapter 14 
00:42:16.458                             : en:Chapter 15 
00:45:19.458                             : en:Chapter 16 
00:48:55.625                             : en:Chapter 17 
00:51:40.625                             : en:Chapter 18 
00:54:21.375                             : en:Chapter 19 
00:57:12.625                             : en:Chapter 20 
00:58:54.458                             : en:Chapter 21 
01:01:57.541                             : en:Chapter 22 
01:05:12.750                             : en:Chapter 23 
01:06:49.666                             : en:Chapter 24 
01:11:31.625                             : en:Chapter 25 
01:13:34.250                             : en:Chapter 26 
01:18:13.958                             : en:Chapter 27 
01:19:47.041                             : en:Chapter 28 
01:23:32.000                             : en:Chapter 29 
01:28:16.666                             : en:Chapter 30 
01:32:18.833                             : en:Chapter 31 
01:35:48.000                             : en:Chapter 32 
01:39:35.291                             : en:Chapter 33 
01:42:08.750                             : en:Chapter 34 
01:45:21.833                             : en:Chapter 35 
01:46:58.458                             : en:Chapter 36

Screencaps

Download

File: Kama Sutra A Tale of Love (1996) (1080p BluRay x265 Natty).mkv (2.5 GB)

Download: Google Drive

1 thought on “Kama Sutra A Tale of Love (1996) (1080p BluRay x265 HEVC 12bit AAC 2.0 Natty)

Leave a Reply