Jurassic World 2015 (1080p Bluray x265 HEVC 10bit AAC 7.1 Tigole)

Info

Image result for Jurassic World 2015

Plot: A new theme park, built on the original site of Jurassic Park, creates a genetically modified hybrid dinosaur, the Indominus Rex, which escapes containment and goes on a killing spree.

Mediainfo

General
Unique ID                                : 239026329533702635875919724272722077389 (0xB3D2CBEB0075FF0898C979A5869366CD)
Complete name                            : Jurassic World 2015 (1080p x265 10bit Tigole).mkv
Format                                   : Matroska
Format version                           : Version 4 / Version 2
File size                                : 3.00 GiB
Duration                                 : 2 h 4 min
Overall bit rate                         : 3 455 kb/s
Movie name                               : Jurassic World
Encoded date                             : UTC 2016-09-12 03:07:33
Writing application                      : mkvmerge v9.4.0 ('Knurl') 64bit
Writing library                          : libebml v1.3.4 + libmatroska v1.4.5

Video
ID                                       : 1
Format                                   : HEVC
Format/Info                              : High Efficiency Video Coding
Format profile                           : Main [email protected]@Main
Codec ID                                 : V_MPEGH/ISO/HEVC
Duration                                 : 2 h 4 min
Bit rate                                 : 2 975 kb/s
Width                                    : 1 920 pixels
Height                                   : 960 pixels
Display aspect ratio                     : 2.000
Frame rate mode                          : Constant
Frame rate                               : 23.976 (24000/1001) FPS
Color space                              : YUV
Chroma subsampling                       : 4:2:0
Bit depth                                : 10 bits
Bits/(Pixel*Frame)                       : 0.067
Stream size                              : 2.58 GiB (86%)
Writing library                          : x265 2.0+16-215eedc9ecc0:[Windows][GCC 6.1.0][64 bit] 10bit
Encoding settings                        : wpp / ctu=64 / min-cu-size=8 / max-tu-size=32 / tu-intra-depth=1 / tu-inter-depth=1 / me=1 / subme=2 / merange=57 / no-rect / no-amp / max-merge=2 / temporal-mvp / no-early-skip / rskip / rdpenalty=0 / no-tskip / no-tskip-fast / strong-intra-smoothing / no-lossless / no-cu-lossless / no-constrained-intra / no-fast-intra / open-gop / no-temporal-layers / interlace=0 / keyint=250 / min-keyint=23 / scenecut=40 / rc-lookahead=20 / lookahead-slices=6 / bframes=4 / bframe-bias=0 / b-adapt=2 / ref=3 / limit-refs=3 / no-limit-modes / weightp / no-weightb / aq-mode=1 / qg-size=32 / aq-strength=1.00 / cbqpoffs=0 / crqpoffs=0 / rd=3 / psy-rd=2.00 / rdoq-level=0 / psy-rdoq=0.00 / log2-max-poc-lsb=8 / no-rd-refine / signhide / deblock=0:0 / sao / no-sao-non-deblock / b-pyramid / cutree / no-intra-refresh / rc=2 / pass / bitrate=2976 / qcomp=0.60 / qpmin=0 / qpmax=69 / qpstep=4 / cplxblur=20.0 / qblur=0.5 / ipratio=1.40 / pbratio=1.30
Default                                  : Yes
Forced                                   : No

Audio
ID                                       : 2
Format                                   : AAC
Format/Info                              : Advanced Audio Codec
Format profile                           : LC
Codec ID                                 : A_AAC
Duration                                 : 2 h 4 min
Bit rate                                 : 417 kb/s
Channel(s)                               : 8 channels
Channel positions                        : Front: L C R, Side: L R, Back: L R, LFE
Sampling rate                            : 48.0 kHz
Frame rate                               : 46.875 FPS (1024 spf)
Compression mode                         : Lossy
Delay relative to video                  : 20 ms
Stream size                              : 371 MiB (12%)
Language                                 : English
Default                                  : Yes
Forced                                   : No

Text #1
ID                                       : 3
Format                                   : VobSub
Muxing mode                              : zlib
Codec ID                                 : S_VOBSUB
Codec ID/Info                            : Picture based subtitle format used on DVDs
Duration                                 : 1 h 53 min
Bit rate                                 : 6 152 b/s
Count of elements                        : 1495
Stream size                              : 5.01 MiB (0%)
Language                                 : English
Default                                  : No
Forced                                   : No

Text #2
ID                                       : 4
Format                                   : VobSub
Muxing mode                              : zlib
Codec ID                                 : S_VOBSUB
Codec ID/Info                            : Picture based subtitle format used on DVDs
Duration                                 : 2 h 2 min
Bit rate                                 : 4 861 b/s
Count of elements                        : 1233
Stream size                              : 4.25 MiB (0%)
Language                                 : Spanish
Default                                  : No
Forced                                   : No

Text #3
ID                                       : 5
Format                                   : VobSub
Muxing mode                              : zlib
Codec ID                                 : S_VOBSUB
Codec ID/Info                            : Picture based subtitle format used on DVDs
Duration                                 : 2 h 2 min
Bit rate                                 : 3 647 b/s
Count of elements                        : 1169
Stream size                              : 3.21 MiB (0%)
Language                                 : French
Default                                  : No
Forced                                   : No

Text #4
ID                                       : 6
Format                                   : VobSub
Muxing mode                              : zlib
Codec ID                                 : S_VOBSUB
Codec ID/Info                            : Picture based subtitle format used on DVDs
Duration                                 : 2 h 2 min
Bit rate                                 : 5 067 b/s
Count of elements                        : 1222
Stream size                              : 4.43 MiB (0%)
Language                                 : German
Default                                  : No
Forced                                   : No

Text #5
ID                                       : 7
Format                                   : VobSub
Muxing mode                              : zlib
Codec ID                                 : S_VOBSUB
Codec ID/Info                            : Picture based subtitle format used on DVDs
Duration                                 : 2 h 0 min
Bit rate                                 : 49 b/s
Count of elements                        : 16
Stream size                              : 43.4 KiB (0%)
Title                                    : Forced
Language                                 : German
Default                                  : No
Forced                                   : No

Text #6
ID                                       : 8
Format                                   : VobSub
Muxing mode                              : zlib
Codec ID                                 : S_VOBSUB
Codec ID/Info                            : Picture based subtitle format used on DVDs
Duration                                 : 2 h 2 min
Bit rate                                 : 4 222 b/s
Count of elements                        : 1228
Stream size                              : 3.69 MiB (0%)
Language                                 : Hindi
Default                                  : No
Forced                                   : No

Text #7
ID                                       : 9
Format                                   : VobSub
Muxing mode                              : zlib
Codec ID                                 : S_VOBSUB
Codec ID/Info                            : Picture based subtitle format used on DVDs
Duration                                 : 2 h 2 min
Bit rate                                 : 4 480 b/s
Count of elements                        : 1221
Stream size                              : 3.92 MiB (0%)
Language                                 : Italian
Default                                  : No
Forced                                   : No

Text #8
ID                                       : 10
Format                                   : VobSub
Muxing mode                              : zlib
Codec ID                                 : S_VOBSUB
Codec ID/Info                            : Picture based subtitle format used on DVDs
Duration                                 : 2 h 4 min
Bit rate                                 : 4 695 b/s
Count of elements                        : 1204
Stream size                              : 4.17 MiB (0%)
Language                                 : Portuguese
Default                                  : No
Forced                                   : No

Text #9
ID                                       : 11
Format                                   : VobSub
Muxing mode                              : zlib
Codec ID                                 : S_VOBSUB
Codec ID/Info                            : Picture based subtitle format used on DVDs
Duration                                 : 2 h 3 min
Bit rate                                 : 2 982 b/s
Count of elements                        : 1295
Stream size                              : 2.63 MiB (0%)
Language                                 : Arabic
Default                                  : No
Forced                                   : No

Text #10
ID                                       : 12
Format                                   : VobSub
Muxing mode                              : zlib
Codec ID                                 : S_VOBSUB
Codec ID/Info                            : Picture based subtitle format used on DVDs
Duration                                 : 2 h 2 min
Bit rate                                 : 4 135 b/s
Count of elements                        : 958
Stream size                              : 3.61 MiB (0%)
Language                                 : Danish
Default                                  : No
Forced                                   : No

Text #11
ID                                       : 13
Format                                   : VobSub
Muxing mode                              : zlib
Codec ID                                 : S_VOBSUB
Codec ID/Info                            : Picture based subtitle format used on DVDs
Duration                                 : 2 h 2 min
Bit rate                                 : 3 783 b/s
Count of elements                        : 894
Stream size                              : 3.31 MiB (0%)
Language                                 : Dutch
Default                                  : No
Forced                                   : No

Text #12
ID                                       : 14
Format                                   : VobSub
Muxing mode                              : zlib
Codec ID                                 : S_VOBSUB
Codec ID/Info                            : Picture based subtitle format used on DVDs
Duration                                 : 2 h 2 min
Bit rate                                 : 3 652 b/s
Count of elements                        : 868
Stream size                              : 3.19 MiB (0%)
Language                                 : Finnish
Default                                  : No
Forced                                   : No

Text #13
ID                                       : 15
Format                                   : VobSub
Muxing mode                              : zlib
Codec ID                                 : S_VOBSUB
Codec ID/Info                            : Picture based subtitle format used on DVDs
Duration                                 : 2 h 3 min
Bit rate                                 : 4 756 b/s
Count of elements                        : 1220
Stream size                              : 4.19 MiB (0%)
Language                                 : Icelandic
Default                                  : No
Forced                                   : No

Text #14
ID                                       : 16
Format                                   : VobSub
Muxing mode                              : zlib
Codec ID                                 : S_VOBSUB
Codec ID/Info                            : Picture based subtitle format used on DVDs
Duration                                 : 2 h 2 min
Bit rate                                 : 3 731 b/s
Count of elements                        : 1068
Stream size                              : 3.26 MiB (0%)
Language                                 : Norwegian Bokmal
Default                                  : No
Forced                                   : No

Text #15
ID                                       : 17
Format                                   : VobSub
Muxing mode                              : zlib
Codec ID                                 : S_VOBSUB
Codec ID/Info                            : Picture based subtitle format used on DVDs
Duration                                 : 2 h 2 min
Bit rate                                 : 4 299 b/s
Count of elements                        : 1002
Stream size                              : 3.76 MiB (0%)
Language                                 : Swedish
Default                                  : No
Forced                                   : No

Menu
00:00:00.000                             : en:Chapter 01
00:06:59.168                             : en:Chapter 02
00:11:01.827                             : en:Chapter 03
00:18:28.440                             : en:Chapter 04
00:25:34.866                             : en:Chapter 05
00:31:20.837                             : en:Chapter 06
00:39:23.861                             : en:Chapter 07
00:44:07.853                             : en:Chapter 08
00:48:57.225                             : en:Chapter 09
00:55:51.056                             : en:Chapter 10
01:01:21.344                             : en:Chapter 11
01:09:50.561                             : en:Chapter 12
01:15:25.479                             : en:Chapter 13
01:23:51.860                             : en:Chapter 14
01:30:14.700                             : en:Chapter 15
01:36:45.424                             : en:Chapter 16
01:41:15.652                             : en:Chapter 17
01:47:35.282                             : en:Chapter 18
01:53:06.029                             : en:Chapter 19
01:55:37.764                             : en:Chapter 20

Download

File: Jurassic World 2015 (1080p x265 10bit Tigole).mkv (3 GB)

Movie: Google Drive

Featurettes: Google Drive

Leave a Reply