The Lost World: Jurassic Park 1997 (1080p Bluray x265 HEVC 10bit AAC 7.1 Tigole)

Info

Image result for The Lost World - Jurassic Park 1997

Plot: A research team is sent to the Jurassic Park Site B island to study the dinosaurs there, while an InGen team approaches with another agenda.

Mediainfo

General
Unique ID                                : 236033473076588165718119889049718543820 (0xB19264B3BD0EC3BCB27B13998086D5CC)
Complete name                            : The Lost World - Jurassic Park 1997 (1080p x265 10bit Tigole).mkv
Format                                   : Matroska
Format version                           : Version 4 / Version 2
File size                                : 2.68 GiB
Duration                                 : 2 h 8 min
Overall bit rate                         : 2 980 kb/s
Movie name                               : The Lost World: Jurassic Park
Encoded date                             : UTC 2016-09-10 15:59:06
Writing application                      : mkvmerge v9.2.0 ('Photograph') 64bit
Writing library                          : libebml v1.3.3 + libmatroska v1.4.4

Video
ID                                       : 1
Format                                   : HEVC
Format/Info                              : High Efficiency Video Coding
Format profile                           : Main [email protected]@Main
Codec ID                                 : V_MPEGH/ISO/HEVC
Duration                                 : 2 h 8 min
Bit rate                                 : 2 488 kb/s
Width                                    : 1 920 pixels
Height                                   : 1 040 pixels
Display aspect ratio                     : 1.85:1
Frame rate mode                          : Constant
Frame rate                               : 23.976 (24000/1001) FPS
Color space                              : YUV
Chroma subsampling                       : 4:2:0
Bit depth                                : 10 bits
Bits/(Pixel*Frame)                       : 0.052
Stream size                              : 2.24 GiB (83%)
Writing library                          : x265 2.0+16-215eedc9ecc0:[Windows][GCC 6.1.0][64 bit] 10bit
Encoding settings                        : wpp / ctu=64 / min-cu-size=8 / max-tu-size=32 / tu-intra-depth=1 / tu-inter-depth=1 / me=1 / subme=2 / merange=57 / no-rect / no-amp / max-merge=2 / temporal-mvp / no-early-skip / rskip / rdpenalty=0 / no-tskip / no-tskip-fast / strong-intra-smoothing / no-lossless / no-cu-lossless / no-constrained-intra / no-fast-intra / open-gop / no-temporal-layers / interlace=0 / keyint=250 / min-keyint=23 / scenecut=40 / rc-lookahead=20 / lookahead-slices=6 / bframes=4 / bframe-bias=0 / b-adapt=2 / ref=3 / limit-refs=3 / no-limit-modes / weightp / no-weightb / aq-mode=1 / qg-size=32 / aq-strength=1.00 / cbqpoffs=0 / crqpoffs=0 / rd=3 / psy-rd=2.00 / rdoq-level=0 / psy-rdoq=0.00 / log2-max-poc-lsb=8 / no-rd-refine / signhide / deblock=0:0 / sao / no-sao-non-deblock / b-pyramid / cutree / no-intra-refresh / rc=2 / pass / bitrate=2488 / qcomp=0.60 / qpmin=0 / qpmax=69 / qpstep=4 / cplxblur=20.0 / qblur=0.5 / ipratio=1.40 / pbratio=1.30
Default                                  : Yes
Forced                                   : No

Audio
ID                                       : 2
Format                                   : AAC
Format/Info                              : Advanced Audio Codec
Format profile                           : LC
Codec ID                                 : A_AAC
Duration                                 : 2 h 8 min
Bit rate                                 : 427 kb/s
Channel(s)                               : 8 channels
Channel positions                        : Front: L C R, Side: L R, Back: L R, LFE
Sampling rate                            : 48.0 kHz
Frame rate                               : 46.875 FPS (1024 spf)
Compression mode                         : Lossy
Delay relative to video                  : 20 ms
Stream size                              : 393 MiB (14%)
Language                                 : English
Default                                  : Yes
Forced                                   : No

Text #1
ID                                       : 3
Format                                   : VobSub
Muxing mode                              : zlib
Codec ID                                 : S_VOBSUB
Codec ID/Info                            : Picture based subtitle format used on DVDs
Duration                                 : 2 h 1 min
Bit rate                                 : 6 033 b/s
Count of elements                        : 1437
Stream size                              : 5.23 MiB (0%)
Language                                 : English
Default                                  : No
Forced                                   : No

Text #2
ID                                       : 4
Format                                   : VobSub
Muxing mode                              : zlib
Codec ID                                 : S_VOBSUB
Codec ID/Info                            : Picture based subtitle format used on DVDs
Duration                                 : 2 h 0 min
Bit rate                                 : 3 311 b/s
Count of elements                        : 1060
Stream size                              : 2.85 MiB (0%)
Language                                 : Japanese
Default                                  : No
Forced                                   : No

Text #3
ID                                       : 5
Format                                   : VobSub
Muxing mode                              : zlib
Codec ID                                 : S_VOBSUB
Codec ID/Info                            : Picture based subtitle format used on DVDs
Duration                                 : 2 h 0 min
Bit rate                                 : 4 516 b/s
Count of elements                        : 1020
Stream size                              : 3.91 MiB (0%)
Language                                 : French
Default                                  : No
Forced                                   : No

Text #4
ID                                       : 6
Format                                   : VobSub
Muxing mode                              : zlib
Codec ID                                 : S_VOBSUB
Codec ID/Info                            : Picture based subtitle format used on DVDs
Duration                                 : 2 h 0 min
Bit rate                                 : 4 548 b/s
Count of elements                        : 1008
Stream size                              : 3.92 MiB (0%)
Language                                 : Italian
Default                                  : No
Forced                                   : No

Text #5
ID                                       : 7
Format                                   : VobSub
Muxing mode                              : zlib
Codec ID                                 : S_VOBSUB
Codec ID/Info                            : Picture based subtitle format used on DVDs
Duration                                 : 2 h 0 min
Bit rate                                 : 4 929 b/s
Count of elements                        : 1009
Stream size                              : 4.25 MiB (0%)
Language                                 : German
Default                                  : No
Forced                                   : No

Text #6
ID                                       : 8
Format                                   : VobSub
Muxing mode                              : zlib
Codec ID                                 : S_VOBSUB
Codec ID/Info                            : Picture based subtitle format used on DVDs
Duration                                 : 1 h 53 min
Bit rate                                 : 58 b/s
Count of elements                        : 12
Stream size                              : 48.8 KiB (0%)
Title                                    : Forced
Language                                 : German
Default                                  : No
Forced                                   : No

Text #7
ID                                       : 9
Format                                   : VobSub
Muxing mode                              : zlib
Codec ID                                 : S_VOBSUB
Codec ID/Info                            : Picture based subtitle format used on DVDs
Duration                                 : 2 h 0 min
Bit rate                                 : 4 828 b/s
Count of elements                        : 1010
Stream size                              : 4.16 MiB (0%)
Language                                 : Spanish
Default                                  : No
Forced                                   : No

Text #8
ID                                       : 10
Format                                   : VobSub
Muxing mode                              : zlib
Codec ID                                 : S_VOBSUB
Codec ID/Info                            : Picture based subtitle format used on DVDs
Duration                                 : 2 h 0 min
Bit rate                                 : 4 502 b/s
Count of elements                        : 1008
Stream size                              : 3.88 MiB (0%)
Language                                 : Dutch
Default                                  : No
Forced                                   : No

Text #9
ID                                       : 11
Format                                   : VobSub
Muxing mode                              : zlib
Codec ID                                 : S_VOBSUB
Codec ID/Info                            : Picture based subtitle format used on DVDs
Duration                                 : 2 h 0 min
Bit rate                                 : 4 423 b/s
Count of elements                        : 1015
Stream size                              : 3.81 MiB (0%)
Language                                 : Chinese
Default                                  : No
Forced                                   : No

Text #10
ID                                       : 12
Format                                   : VobSub
Muxing mode                              : zlib
Codec ID                                 : S_VOBSUB
Codec ID/Info                            : Picture based subtitle format used on DVDs
Duration                                 : 2 h 0 min
Bit rate                                 : 4 505 b/s
Count of elements                        : 1008
Stream size                              : 3.88 MiB (0%)
Language                                 : Danish
Default                                  : No
Forced                                   : No

Text #11
ID                                       : 13
Format                                   : VobSub
Muxing mode                              : zlib
Codec ID                                 : S_VOBSUB
Codec ID/Info                            : Picture based subtitle format used on DVDs
Duration                                 : 2 h 0 min
Bit rate                                 : 4 488 b/s
Count of elements                        : 1009
Stream size                              : 3.87 MiB (0%)
Language                                 : Finnish
Default                                  : No
Forced                                   : No

Text #12
ID                                       : 14
Format                                   : VobSub
Muxing mode                              : zlib
Codec ID                                 : S_VOBSUB
Codec ID/Info                            : Picture based subtitle format used on DVDs
Duration                                 : 2 h 0 min
Bit rate                                 : 4 800 b/s
Count of elements                        : 1010
Stream size                              : 4.13 MiB (0%)
Language                                 : Icelandic
Default                                  : No
Forced                                   : No

Text #13
ID                                       : 15
Format                                   : VobSub
Muxing mode                              : zlib
Codec ID                                 : S_VOBSUB
Codec ID/Info                            : Picture based subtitle format used on DVDs
Duration                                 : 2 h 0 min
Bit rate                                 : 3 142 b/s
Count of elements                        : 1016
Stream size                              : 2.71 MiB (0%)
Language                                 : Korean
Default                                  : No
Forced                                   : No

Text #14
ID                                       : 16
Format                                   : VobSub
Muxing mode                              : zlib
Codec ID                                 : S_VOBSUB
Codec ID/Info                            : Picture based subtitle format used on DVDs
Duration                                 : 2 h 0 min
Bit rate                                 : 4 496 b/s
Count of elements                        : 1008
Stream size                              : 3.87 MiB (0%)
Language                                 : Norwegian Bokmal
Default                                  : No
Forced                                   : No

Text #15
ID                                       : 17
Format                                   : VobSub
Muxing mode                              : zlib
Codec ID                                 : S_VOBSUB
Codec ID/Info                            : Picture based subtitle format used on DVDs
Duration                                 : 2 h 0 min
Bit rate                                 : 4 639 b/s
Count of elements                        : 1009
Stream size                              : 4.00 MiB (0%)
Language                                 : Portuguese
Default                                  : No
Forced                                   : No

Text #16
ID                                       : 18
Format                                   : VobSub
Muxing mode                              : zlib
Codec ID                                 : S_VOBSUB
Codec ID/Info                            : Picture based subtitle format used on DVDs
Duration                                 : 2 h 0 min
Bit rate                                 : 4 008 b/s
Count of elements                        : 1008
Stream size                              : 3.45 MiB (0%)
Language                                 : Swedish
Default                                  : No
Forced                                   : No

Menu
00:00:00.000                             : en:Chapter 01
00:04:13.586                             : en:Chapter 02
00:08:38.309                             : en:Chapter 03
00:16:11.929                             : en:Chapter 04
00:21:43.135                             : en:Chapter 05
00:33:22.291                             : en:Chapter 06
00:41:48.756                             : en:Chapter 07
00:47:57.749                             : en:Chapter 08
00:53:40.467                             : en:Chapter 09
01:04:46.674                             : en:Chapter 10
01:12:59.708                             : en:Chapter 11
01:20:47.884                             : en:Chapter 12
01:26:18.631                             : en:Chapter 13
01:31:53.382                             : en:Chapter 14
01:42:23.637                             : en:Chapter 15
01:50:51.895                             : en:Chapter 16
01:52:13.852                             : en:Chapter 17
01:58:10.875                             : en:Chapter 18
01:59:51.601                             : en:Chapter 19
02:01:56.434                             : en:Chapter 20

Download

File: The Lost World – Jurassic Park 1997 (1080p x265 10bit Tigole).mkv (2.68 GB)

Movie: Google Drive

Featurettes: Google Drive

Leave a Reply