Jurassic Park III 2001 (1080p Bluray x265 HEVC 10bit AAC 7.1 Tigole)

Info

Image result for Jurassic Park III 2001

Plot: A decidedly odd couple with ulterior motives convince Dr. Grant to go to Isla Sorna, resulting in an unexpected landing, and startling new inhabitants on the island.

Mediainfo

General
Unique ID                                : 251261350320763052700372609945577923606 (0xBD072D042D6DA89986B7C6BABEE32416)
Complete name                            : Jurassic Park III 2001 (1080p x265 10bit Tigole).mkv
Format                                   : Matroska
Format version                           : Version 4 / Version 2
File size                                : 2.32 GiB
Duration                                 : 1 h 32 min
Overall bit rate                         : 3 600 kb/s
Movie name                               : Jurassic Park III
Encoded date                             : UTC 2016-09-11 05:57:24
Writing application                      : mkvmerge v9.2.0 ('Photograph') 64bit
Writing library                          : libebml v1.3.3 + libmatroska v1.4.4

Video
ID                                       : 1
Format                                   : HEVC
Format/Info                              : High Efficiency Video Coding
Format profile                           : Main [email protected]@Main
Codec ID                                 : V_MPEGH/ISO/HEVC
Duration                                 : 1 h 32 min
Bit rate                                 : 3 011 kb/s
Width                                    : 1 920 pixels
Height                                   : 1 040 pixels
Display aspect ratio                     : 1.85:1
Frame rate mode                          : Constant
Frame rate                               : 23.976 (24000/1001) FPS
Color space                              : YUV
Chroma subsampling                       : 4:2:0
Bit depth                                : 10 bits
Bits/(Pixel*Frame)                       : 0.063
Stream size                              : 1.94 GiB (84%)
Writing library                          : x265 2.0+16-215eedc9ecc0:[Windows][GCC 6.1.0][64 bit] 10bit
Encoding settings                        : wpp / ctu=64 / min-cu-size=8 / max-tu-size=32 / tu-intra-depth=1 / tu-inter-depth=1 / me=1 / subme=2 / merange=57 / no-rect / no-amp / max-merge=2 / temporal-mvp / no-early-skip / rskip / rdpenalty=0 / no-tskip / no-tskip-fast / strong-intra-smoothing / no-lossless / no-cu-lossless / no-constrained-intra / no-fast-intra / open-gop / no-temporal-layers / interlace=0 / keyint=250 / min-keyint=23 / scenecut=40 / rc-lookahead=20 / lookahead-slices=6 / bframes=4 / bframe-bias=0 / b-adapt=2 / ref=3 / limit-refs=3 / no-limit-modes / weightp / no-weightb / aq-mode=1 / qg-size=32 / aq-strength=1.00 / cbqpoffs=0 / crqpoffs=0 / rd=3 / psy-rd=2.00 / rdoq-level=0 / psy-rdoq=0.00 / log2-max-poc-lsb=8 / no-rd-refine / signhide / deblock=0:0 / sao / no-sao-non-deblock / b-pyramid / cutree / no-intra-refresh / rc=2 / pass / bitrate=3012 / qcomp=0.60 / qpmin=0 / qpmax=69 / qpstep=4 / cplxblur=20.0 / qblur=0.5 / ipratio=1.40 / pbratio=1.30
Default                                  : Yes
Forced                                   : No

Audio #1
ID                                       : 2
Format                                   : AAC
Format/Info                              : Advanced Audio Codec
Format profile                           : LC
Codec ID                                 : A_AAC
Duration                                 : 1 h 32 min
Bit rate                                 : 413 kb/s
Channel(s)                               : 8 channels
Channel positions                        : Front: L C R, Side: L R, Back: L R, LFE
Sampling rate                            : 48.0 kHz
Frame rate                               : 46.875 FPS (1024 spf)
Compression mode                         : Lossy
Delay relative to video                  : 20 ms
Stream size                              : 273 MiB (11%)
Language                                 : English
Default                                  : Yes
Forced                                   : No

Audio #2
ID                                       : 3
Format                                   : AAC
Format/Info                              : Advanced Audio Codec
Format profile                           : HE-AAC / LC
Codec ID                                 : A_AAC
Duration                                 : 1 h 32 min
Bit rate                                 : 53.1 kb/s
Channel(s)                               : 2 channels
Channel positions                        : Front: L R
Sampling rate                            : 48.0 kHz / 24.0 kHz
Frame rate                               : 23.438 FPS (1024 spf)
Compression mode                         : Lossy
Delay relative to video                  : 31 ms
Stream size                              : 35.0 MiB (1%)
Language                                 : English
Default                                  : No
Forced                                   : No

Text #1
ID                                       : 4
Format                                   : VobSub
Muxing mode                              : zlib
Codec ID                                 : S_VOBSUB
Codec ID/Info                            : Picture based subtitle format used on DVDs
Duration                                 : 1 h 22 min
Bit rate                                 : 5 032 b/s
Count of elements                        : 951
Stream size                              : 2.98 MiB (0%)
Language                                 : English
Default                                  : No
Forced                                   : No

Text #2
ID                                       : 5
Format                                   : VobSub
Muxing mode                              : zlib
Codec ID                                 : S_VOBSUB
Codec ID/Info                            : Picture based subtitle format used on DVDs
Duration                                 : 1 h 28 min
Bit rate                                 : 12.5 kb/s
Count of elements                        : 1455
Stream size                              : 7.89 MiB (0%)
Title                                    : Commentary
Language                                 : English
Default                                  : No
Forced                                   : No

Text #3
ID                                       : 6
Format                                   : VobSub
Muxing mode                              : zlib
Codec ID                                 : S_VOBSUB
Codec ID/Info                            : Picture based subtitle format used on DVDs
Duration                                 : 1 h 22 min
Bit rate                                 : 3 106 b/s
Count of elements                        : 854
Stream size                              : 1.84 MiB (0%)
Language                                 : Japanese
Default                                  : No
Forced                                   : No

Text #4
ID                                       : 7
Format                                   : VobSub
Muxing mode                              : zlib
Codec ID                                 : S_VOBSUB
Codec ID/Info                            : Picture based subtitle format used on DVDs
Duration                                 : 1 h 28 min
Bit rate                                 : 6 877 b/s
Count of elements                        : 1022
Stream size                              : 4.33 MiB (0%)
Title                                    : Commentary
Language                                 : Japanese
Default                                  : No
Forced                                   : No

Text #5
ID                                       : 8
Format                                   : VobSub
Muxing mode                              : zlib
Codec ID                                 : S_VOBSUB
Codec ID/Info                            : Picture based subtitle format used on DVDs
Duration                                 : 1 h 31 min
Bit rate                                 : 3 344 b/s
Count of elements                        : 795
Stream size                              : 2.19 MiB (0%)
Language                                 : French
Default                                  : No
Forced                                   : No

Text #6
ID                                       : 9
Format                                   : VobSub
Muxing mode                              : zlib
Codec ID                                 : S_VOBSUB
Codec ID/Info                            : Picture based subtitle format used on DVDs
Duration                                 : 1 h 32 min
Bit rate                                 : 10.7 kb/s
Count of elements                        : 1432
Stream size                              : 7.03 MiB (0%)
Title                                    : Commentary
Language                                 : French
Default                                  : No
Forced                                   : No

Text #7
ID                                       : 10
Format                                   : VobSub
Muxing mode                              : zlib
Codec ID                                 : S_VOBSUB
Codec ID/Info                            : Picture based subtitle format used on DVDs
Duration                                 : 1 h 31 min
Bit rate                                 : 3 708 b/s
Count of elements                        : 766
Stream size                              : 2.43 MiB (0%)
Language                                 : Italian
Default                                  : No
Forced                                   : No

Text #8
ID                                       : 11
Format                                   : VobSub
Muxing mode                              : zlib
Codec ID                                 : S_VOBSUB
Codec ID/Info                            : Picture based subtitle format used on DVDs
Duration                                 : 1 h 32 min
Bit rate                                 : 10.6 kb/s
Count of elements                        : 1432
Stream size                              : 7.00 MiB (0%)
Title                                    : Commentary
Language                                 : Italian
Default                                  : No
Forced                                   : No

Text #9
ID                                       : 12
Format                                   : VobSub
Muxing mode                              : zlib
Codec ID                                 : S_VOBSUB
Codec ID/Info                            : Picture based subtitle format used on DVDs
Duration                                 : 1 h 31 min
Bit rate                                 : 4 180 b/s
Count of elements                        : 758
Stream size                              : 2.74 MiB (0%)
Language                                 : German
Default                                  : No
Forced                                   : No

Text #10
ID                                       : 13
Format                                   : VobSub
Muxing mode                              : zlib
Codec ID                                 : S_VOBSUB
Codec ID/Info                            : Picture based subtitle format used on DVDs
Duration                                 : 1 h 32 min
Bit rate                                 : 12.6 kb/s
Count of elements                        : 1433
Stream size                              : 8.32 MiB (0%)
Title                                    : Commentary
Language                                 : German
Default                                  : No
Forced                                   : No

Text #11
ID                                       : 14
Format                                   : VobSub
Muxing mode                              : zlib
Codec ID                                 : S_VOBSUB
Codec ID/Info                            : Picture based subtitle format used on DVDs
Duration                                 : 1 h 31 min
Bit rate                                 : 27 b/s
Count of elements                        : 6
Stream size                              : 18.7 KiB (0%)
Title                                    : Forced
Language                                 : German
Default                                  : No
Forced                                   : No

Text #12
ID                                       : 15
Format                                   : VobSub
Muxing mode                              : zlib
Codec ID                                 : S_VOBSUB
Codec ID/Info                            : Picture based subtitle format used on DVDs
Duration                                 : 1 h 31 min
Bit rate                                 : 4 084 b/s
Count of elements                        : 790
Stream size                              : 2.67 MiB (0%)
Language                                 : Spanish
Default                                  : No
Forced                                   : No

Text #13
ID                                       : 16
Format                                   : VobSub
Muxing mode                              : zlib
Codec ID                                 : S_VOBSUB
Codec ID/Info                            : Picture based subtitle format used on DVDs
Duration                                 : 1 h 32 min
Bit rate                                 : 12.1 kb/s
Count of elements                        : 1434
Stream size                              : 7.96 MiB (0%)
Title                                    : Commentary
Language                                 : Spanish
Default                                  : No
Forced                                   : No

Text #14
ID                                       : 17
Format                                   : VobSub
Muxing mode                              : zlib
Codec ID                                 : S_VOBSUB
Codec ID/Info                            : Picture based subtitle format used on DVDs
Duration                                 : 1 h 31 min
Bit rate                                 : 3 814 b/s
Count of elements                        : 758
Stream size                              : 2.50 MiB (0%)
Language                                 : Dutch
Default                                  : No
Forced                                   : No

Text #15
ID                                       : 18
Format                                   : VobSub
Muxing mode                              : zlib
Codec ID                                 : S_VOBSUB
Codec ID/Info                            : Picture based subtitle format used on DVDs
Duration                                 : 1 h 31 min
Bit rate                                 : 3 259 b/s
Count of elements                        : 789
Stream size                              : 2.13 MiB (0%)
Language                                 : Chinese
Default                                  : No
Forced                                   : No

Text #16
ID                                       : 19
Format                                   : VobSub
Muxing mode                              : zlib
Codec ID                                 : S_VOBSUB
Codec ID/Info                            : Picture based subtitle format used on DVDs
Duration                                 : 1 h 31 min
Bit rate                                 : 3 805 b/s
Count of elements                        : 788
Stream size                              : 2.49 MiB (0%)
Language                                 : Danish
Default                                  : No
Forced                                   : No

Text #17
ID                                       : 20
Format                                   : VobSub
Muxing mode                              : zlib
Codec ID                                 : S_VOBSUB
Codec ID/Info                            : Picture based subtitle format used on DVDs
Duration                                 : 1 h 31 min
Bit rate                                 : 3 623 b/s
Count of elements                        : 790
Stream size                              : 2.37 MiB (0%)
Language                                 : Finnish
Default                                  : No
Forced                                   : No

Text #18
ID                                       : 21
Format                                   : VobSub
Muxing mode                              : zlib
Codec ID                                 : S_VOBSUB
Codec ID/Info                            : Picture based subtitle format used on DVDs
Duration                                 : 1 h 31 min
Bit rate                                 : 3 813 b/s
Count of elements                        : 788
Stream size                              : 2.50 MiB (0%)
Language                                 : Icelandic
Default                                  : No
Forced                                   : No

Text #19
ID                                       : 22
Format                                   : VobSub
Muxing mode                              : zlib
Codec ID                                 : S_VOBSUB
Codec ID/Info                            : Picture based subtitle format used on DVDs
Duration                                 : 1 h 31 min
Bit rate                                 : 2 954 b/s
Count of elements                        : 789
Stream size                              : 1.94 MiB (0%)
Language                                 : Korean
Default                                  : No
Forced                                   : No

Text #20
ID                                       : 23
Format                                   : VobSub
Muxing mode                              : zlib
Codec ID                                 : S_VOBSUB
Codec ID/Info                            : Picture based subtitle format used on DVDs
Duration                                 : 1 h 31 min
Bit rate                                 : 3 631 b/s
Count of elements                        : 775
Stream size                              : 2.38 MiB (0%)
Language                                 : Norwegian Bokmal
Default                                  : No
Forced                                   : No

Text #21
ID                                       : 24
Format                                   : VobSub
Muxing mode                              : zlib
Codec ID                                 : S_VOBSUB
Codec ID/Info                            : Picture based subtitle format used on DVDs
Duration                                 : 1 h 31 min
Bit rate                                 : 3 915 b/s
Count of elements                        : 782
Stream size                              : 2.56 MiB (0%)
Language                                 : Portuguese
Default                                  : No
Forced                                   : No

Text #22
ID                                       : 25
Format                                   : VobSub
Muxing mode                              : zlib
Codec ID                                 : S_VOBSUB
Codec ID/Info                            : Picture based subtitle format used on DVDs
Duration                                 : 1 h 31 min
Bit rate                                 : 3 518 b/s
Count of elements                        : 762
Stream size                              : 2.30 MiB (0%)
Language                                 : Swedish
Default                                  : No
Forced                                   : No

Menu
00:00:00.000                             : en:Chapter 01
00:04:11.459                             : en:Chapter 02
00:12:43.721                             : en:Chapter 03
00:17:26.628                             : en:Chapter 04
00:19:56.737                             : en:Chapter 05
00:26:27.294                             : en:Chapter 06
00:27:35.528                             : en:Chapter 07
00:32:37.497                             : en:Chapter 08
00:36:13.045                             : en:Chapter 09
00:40:11.742                             : en:Chapter 10
00:44:32.211                             : en:Chapter 11
00:53:06.349                             : en:Chapter 12
00:56:48.613                             : en:Chapter 13
00:58:55.573                             : en:Chapter 14
01:03:00.693                             : en:Chapter 15
01:11:44.591                             : en:Chapter 16
01:14:53.322                             : en:Chapter 17
01:18:44.010                             : en:Chapter 18
01:21:29.801                             : en:Chapter 19
01:24:27.979                             : en:Chapter 20
01:32:12.693                             : en:Chapter 21

Download

File: Jurassic Park III 2001 (1080p x265 10bit Tigole).mkv (2.32 GB)

Movie: Google Drive

Featurettes: Google Drive

Leave a Reply