Jodhaa Akbar (2008) BODEGA (1080p BluRay x265 HEVC 10bit AAC 6.1 Hindi+French Natty)

Info

Plot: Jodhaa Akbar is a sixteenth century love story about a marriage of alliance that gave birth to true love between a great Mughal Emperor, Akbar and a Rajput princess, Jodhaa.

Encode

Source:

Jodhaa.Akbar.•.2008.•.BD50.•.Untouched.BluRay.•.Bodega.•.DRs | 45 GB | Hon3yHD

Mediainfo

General 
Format : Matroska 
Format version : Version 4 / Version 2 
File size : 6.87 GiB 
Duration : 3 h 33 min 
Overall bit rate : 4 595 kb/s 
Movie name : Jodhaa Akbar 
Encoded date : UTC 2018-06-09 20:03:11 
Writing application : mkvmerge v23.0.0 ('The Bride Said No') 64-bit 
Writing library : libebml v1.3.6 + libmatroska v1.4.9 
Writing frontend : Natty 

Video 
ID : 1 
Format : HEVC 
Format/Info : High Efficiency Video Coding 
Format profile : Main [email protected]@Main 
Codec ID : V_MPEGH/ISO/HEVC 
Duration : 3 h 33 min 
Bit rate : 3 986 kb/s 
Width : 1 920 pixels 
Height : 820 pixels 
Display aspect ratio : 2.35:1 
Frame rate mode : Constant 
Frame rate : 24.000 FPS 
Color space : YUV 
Chroma subsampling : 4:2:0 
Bit depth : 10 bits 
Bits/(Pixel*Frame) : 0.105 
Stream size : 5.96 GiB (87%) 
Writing library : x265 2.8+15-d693a5aa5541:[Windows][MSVC 1914][64 bit] 10bit 
Encoding settings : cpuid=1111039 / frame-threads=2 / numa-pools=4 / wpp / no-pmode / no-pme / no-psnr / no-ssim / log-level=2 / input-csp=1 / input-res=1920x820 / interlace=0 / total-frames=308145 / level-idc=0 / high-tier=1 / uhd-bd=0 / ref=5 / no-allow-non-conformance / no-repeat-headers / annexb / no-aud / no-hrd / info / hash=0 / no-temporal-layers / open-gop / min-keyint=24 / keyint=400 / gop-lookahead=0 / bframes=8 / b-adapt=2 / b-pyramid / bframe-bias=0 / rc-lookahead=100 / lookahead-slices=4 / scenecut=40 / radl=0 / no-intra-refresh / ctu=32 / min-cu-size=8 / no-rect / no-amp / max-tu-size=16 / tu-inter-depth=1 / tu-intra-depth=1 / limit-tu=0 / rdoq-level=0 / dynamic-rd=0.00 / no-ssim-rd / signhide / no-tskip / nr-intra=0 / nr-inter=0 / no-constrained-intra / no-strong-intra-smoothing / max-merge=2 / limit-refs=3 / limit-modes / me=3 / subme=5 / merange=57 / temporal-mvp / weightp / weightb / no-analyze-src-pics / deblock=-2:0 / no-sao / no-sao-non-deblock / rd=4 / no-early-skip / rskip / no-fast-intra / no-tskip-fast / no-cu-lossless / no-b-intra / no-splitrd-skip / rdpenalty=0 / psy-rd=3.00 / psy-rdoq=0.00 / no-rd-refine / no-lossless / cbqpoffs=0 / crqpoffs=0 / rc=crf / crf=24.0 / qcomp=0.60 / qpstep=4 / stats-write=0 / stats-read=0 / ipratio=1.40 / pbratio=1.30 / aq-mode=3 / aq-strength=0.90 / cutree / zone-count=0 / no-strict-cbr / qg-size=32 / no-rc-grain / qpmax=69 / qpmin=0 / no-const-vbv / sar=0 / overscan=0 / videoformat=5 / range=0 / colorprim=1 / transfer=1 / colormatrix=1 / chromaloc=0 / display-window=0 / max-cll=0,0 / min-luma=0 / max-luma=1023 / log2-max-poc-lsb=8 / vui-timing-info / vui-hrd-info / slices=1 / no-opt-qp-pps / no-opt-ref-list-length-pps / multi-pass-opt-rps / scenecut-bias=0.05 / no-opt-cu-delta-qp / aq-motion / no-hdr / no-hdr-opt / no-dhdr10-opt / no-idr-recovery-sei / analysis-reuse-level=8 / scale-factor=0 / refine-intra=0 / refine-inter=0 / refine-mv=0 / no-limit-sao / ctu-info=0 / no-lowpass-dct / refine-mv-type=0 / copy-pic=1 / max-ausize-factor=1.0 / no-dynamic-refine / no-single-sei 
Default : Yes 
Forced : No 
Color range : Limited 
Color primaries : BT.709 
Transfer characteristics : BT.709 
Matrix coefficients : BT.709 

Audio #1 
ID : 2 
Format : AAC 
Format/Info : Advanced Audio Codec 
Format profile : LC 
Codec ID : A_AAC 
Duration : 3 h 33 min 
Bit rate : 487 kb/s 
Channel(s) : 7 channels 
Channel positions : Front: L C R, Side: L C R, LFE 
Sampling rate : 48.0 kHz 
Frame rate : 46.875 FPS (1024 spf) 
Compression mode : Lossy 
Delay relative to video : 20 ms 
Stream size : 745 MiB (11%) 
Language : Hindi 
Default : Yes 
Forced : No 

Audio #2 
ID : 3 
Format : Opus 
Codec ID : A_OPUS 
Duration : 3 h 33 min 
Bit rate : 113 kb/s 
Channel(s) : 7 channels 
Channel positions : Front: L C R, Side: L R, Rear: C, LFE 
Sampling rate : 48.0 kHz 
Frame rate : 50.000 FPS (960 spf) 
Compression mode : Lossy 
Stream size : 174 MiB (2%) 
Language : French 
Default : No 
Forced : No 

Subtitle #1 
ID : 4 
Format : UTF-8 
Codec ID : S_TEXT/UTF8 
Codec ID/Info : UTF-8 Plain Text 
Duration : 3 h 26 min 
Bit rate : 38 b/s 
Count of elements : 1529 
Stream size : 57.7 KiB (0%) 
Language : English 
Default : Yes 
Forced : No 

Subtitle #2 
ID : 5 
Format : PGS 
Muxing mode : zlib 
Codec ID : S_HDMV/PGS 
Codec ID/Info : Picture based subtitle format used on BDs/HD-DVDs 
Duration : 3 h 32 min 
Bit rate : 21.6 kb/s 
Count of elements : 3622 
Stream size : 33.0 MiB (0%) 
Language : French 
Default : No 
Forced : No 

Menu 
00:00:00.000 : en:Chapter 01 
00:03:08.416 : en:Chapter 02 
00:05:39.166 : en:Chapter 03 
00:21:56.916 : en:Chapter 04 
00:31:45.625 : en:Chapter 05 
00:43:01.791 : en:Chapter 06 
00:44:42.625 : en:Chapter 07 
00:47:05.250 : en:Chapter 08 
00:53:53.166 : en:Chapter 09 
01:00:45.041 : en:Chapter 10 
01:11:13.625 : en:Chapter 11 
01:14:56.708 : en:Chapter 12 
01:18:33.041 : en:Chapter 13 
01:24:48.541 : en:Chapter 14 
01:27:15.333 : en:Chapter 15 
01:44:47.583 : en:Chapter 16 
01:52:17.375 : en:Chapter 17 
02:02:54.833 : en:Chapter 18 
02:08:42.083 : en:Chapter 19 
02:25:17.041 : en:Chapter 20 
02:34:12.375 : en:Chapter 21 
02:41:59.291 : en:Chapter 22 
02:48:47.875 : en:Chapter 23 
02:51:24.875 : en:Chapter 24 
02:58:52.916 : en:Chapter 25 
03:05:17.875 : en:Chapter 26 
03:07:17.583 : en:Chapter 27 
03:14:47.625 : en:Chapter 28 
03:23:38.875 : en:Chapter 29 
03:26:34.333 : en:Chapter 30

Screencaps

Download

File: Jodhaa Akbar (2008) BODEGA (1080p BluRay x265 Natty).mkv (6.9 GB)

Movie: Google Drive

Leave a Reply