Hindi Medium (2017) (1080p BluRay x265 HEVC 10bit AAC 5.1 Hindi Natty)

Info

Plot: Mita and Raj Batra, an affluent couple from Delhi’s Chandni Chowk, are grappling with getting their daughter admission into an English medium school. But there is one big problem. Their zubaan is Hindi, and the elitist snobs won’t let the Hindi speaking hoi-polloi fit in.

Encode

Source:

Hindi.Medium.(2017).Untouched.-.BD50.-.AVC.-.DTS-HDMA.5.1.-.ESuBS.-.Hon3yHD.[Exclusive] (47 GB) @ Hon3yHD

Mediainfo

General 
Format : Matroska 
Format version : Version 4 / Version 2 
File size : 3.23 GiB 
Duration : 2 h 12 min 
Overall bit rate : 3 492 kb/s 
Encoded date : UTC 2017-12-01 21:45:18 
Writing application : mkvmerge v17.0.0 ('Be Ur Friend') 64-bit 
Writing library : libebml v1.3.5 + libmatroska v1.4.8 
Writing frontend : Natty 

Video 
ID : 1 
Format : HEVC 
Format/Info : High Efficiency Video Coding 
Format profile : Main [email protected]@Main 
Codec ID : V_MPEGH/ISO/HEVC 
Duration : 2 h 12 min 
Bit rate : 3 002 kb/s 
Width : 1 920 pixels 
Height : 804 pixels 
Display aspect ratio : 2.40:1 
Frame rate mode : Constant 
Frame rate : 24.000 FPS 
Color space : YUV 
Chroma subsampling : 4:2:0 
Bit depth : 10 bits 
Bits/(Pixel*Frame) : 0.081 
Stream size : 2.77 GiB (86%) 
Writing library : x265 2.5+69-b24454f3ff6d:[Windows][MSVC 1911][64 bit] 10bit 
Encoding settings : cpuid=1173503 / frame-threads=2 / numa-pools=4 / wpp / no-pmode / no-pme / no-psnr / no-ssim / log-level=2 / csvfn=D:\Encoding\hindi / medium\title00_new.csv / csv-log-level=0 / input-csp=1 / input-res=1920x804 / interlace=0 / total-frames=190402 / level-idc=0 / high-tier=1 / uhd-bd=0 / ref=6 / no-allow-non-conformance / no-repeat-headers / annexb / no-aud / no-hrd / info / hash=0 / no-temporal-layers / open-gop / min-keyint=24 / keyint=400 / bframes=8 / b-adapt=2 / b-pyramid / bframe-bias=0 / rc-lookahead=100 / lookahead-slices=5 / scenecut=40 / no-intra-refresh / ctu=32 / min-cu-size=8 / no-rect / no-amp / max-tu-size=16 / tu-inter-depth=1 / tu-intra-depth=1 / limit-tu=0 / rdoq-level=2 / dynamic-rd=0.00 / no-ssim-rd / signhide / no-tskip / nr-intra=0 / nr-inter=0 / no-constrained-intra / no-strong-intra-smoothing / max-merge=2 / limit-refs=3 / limit-modes / me=3 / subme=5 / merange=57 / temporal-mvp / weightp / no-weightb / no-analyze-src-pics / deblock=-3:-3 / no-sao / no-sao-non-deblock / rd=4 / no-early-skip / rskip / no-fast-intra / no-tskip-fast / no-cu-lossless / no-b-intra / no-splitrd-skip / rdpenalty=0 / psy-rd=2.00 / psy-rdoq=6.00 / no-rd-refine / analysis-reuse-mode=0 / no-lossless / cbqpoffs=0 / crqpoffs=0 / rc=abr / bitrate=3001 / qcomp=0.90 / qpstep=4 / stats-write=0 / stats-read=2 / cplxblur=20.0 / qblur=0.5 / ipratio=1.40 / pbratio=1.30 / aq-mode=3 / aq-strength=0.90 / cutree / zone-count=0 / no-strict-cbr / qg-size=16 / no-rc-grain / qpmax=69 / qpmin=0 / no-const-vbv / sar=0 / overscan=0 / videoformat=5 / range=1 / colorprim=1 / transfer=1 / colormatrix=1 / chromaloc=0 / display-window=0 / max-cll=0,0 / min-luma=0 / max-luma=1023 / log2-max-poc-lsb=8 / vui-timing-info / vui-hrd-info / slices=1 / no-opt-qp-pps / no-opt-ref-list-length-pps / multi-pass-opt-rps / scenecut-bias=0.05 / no-opt-cu-delta-qp / aq-motion / no-hdr / no-hdr-opt / no-dhdr10-opt / analysis-reuse-level=9 / scale-factor=0 / refine-intra=0 / refine-inter=0 / refine-mv=0 / no-limit-sao / ctu-info=0 / no-lowpass-dct / refine-mv-type=0 / copy-pic=1 
Default : Yes 
Forced : No 
Color range : Full 
Color primaries : BT.709 
Transfer characteristics : BT.709 
Matrix coefficients : BT.709 

Audio 
ID : 2 
Format : AAC 
Format/Info : Advanced Audio Codec 
Format profile : LC 
Codec ID : A_AAC 
Duration : 2 h 12 min 
Bit rate : 468 kb/s 
Channel(s) : 6 channels 
Channel positions : Front: L C R, Side: L R, LFE 
Sampling rate : 48.0 kHz 
Frame rate : 46.875 FPS (1024 spf) 
Compression mode : Lossy 
Delay relative to video : 20 ms 
Stream size : 443 MiB (13%) 
Language : Hindi 
Default : No 
Forced : No 

Subtitle 
ID : 3 
Format : PGS 
Muxing mode : zlib 
Codec ID : S_HDMV/PGS 
Codec ID/Info : Picture based subtitle format used on BDs/HD-DVDs 
Duration : 2 h 9 min 
Bit rate : 48.0 kb/s 
Count of elements : 4722 
Stream size : 44.5 MiB (1%) 
Language : English 
Default : No 
Forced : No 

Menu 
00:00:00.000 : en:Chapter 01 
00:04:40.000 : en:Chapter 02 
00:06:59.000 : en:Chapter 03 
00:13:32.000 : en:Chapter 04 
00:21:55.000 : en:Chapter 05 
00:23:52.000 : en:Chapter 06 
00:28:49.000 : en:Chapter 07 
00:31:37.000 : en:Chapter 08 
00:41:09.500 : en:Chapter 09 
00:44:39.000 : en:Chapter 10 
00:48:35.000 : en:Chapter 11 
00:49:44.000 : en:Chapter 12 
00:53:53.000 : en:Chapter 13 
01:03:03.000 : en:Chapter 14 
01:05:27.000 : en:Chapter 15 
01:07:37.000 : en:Chapter 16 
01:21:47.000 : en:Chapter 17 
01:28:16.000 : en:Chapter 18 
01:32:19.500 : en:Chapter 19 
01:35:44.500 : en:Chapter 20 
01:41:40.500 : en:Chapter 21 
01:44:00.000 : en:Chapter 22 
01:47:34.000 : en:Chapter 23 
01:52:50.000 : en:Chapter 24 
01:59:20.000 : en:Chapter 25 
02:02:16.000 : en:Chapter 26 
02:09:00.000 : en:Chapter 27

Download

File: Hindi Medium (2017) (1080p BluRay x265 Natty).mkv (3.2 GB)

Movie: Google Drive

Leave a Reply