Guru (2007) (1080p BluRay x265 HEVC 10bit AAC 5.1 Hindi Natty)

Info

Plot: Guru is a 2007 Hindi film directed by Mani Ratnam. It stars Abhishek Bachchan, Aishwarya Rai, R. Madhavan, Vidya Balan and Mithun Chakraborty in the leading roles. The movie also has Mallika Sherawat in a guest appearance. The movie was also dubbed in Tamil as Guru and in Telugu as Gurukanth. The film was released on January 12, 2007.

Encode

Source:

Guru.•.2007.•.BD50.•.Untouched.BluRay.•.DRs | 43 GB | hon3yHD

Mediainfo

General 
Format : Matroska 
Format version : Version 4 / Version 2 
File size : 3.16 GiB 
Duration : 2 h 41 min 
Overall bit rate : 2 791 kb/s 
Movie name : Guru (2007) 
Encoded date : UTC 2018-09-05 15:05:50 
Writing application : mkvmerge v26.0.0 ('In The Game') 64-bit 
Writing library : libebml v1.3.6 + libmatroska v1.4.9 
Writing frontend : Natty 

Video 
ID : 1 
Format : HEVC 
Format/Info : High Efficiency Video Coding 
Format profile : Main [email protected]@Main 
Codec ID : V_MPEGH/ISO/HEVC 
Duration : 2 h 41 min 
Bit rate : 2 263 kb/s 
Width : 1 916 pixels 
Height : 808 pixels 
Display aspect ratio : 2.40:1 
Frame rate mode : Constant 
Frame rate : 24.000 FPS 
Color space : YUV 
Chroma subsampling : 4:2:0 
Bit depth : 10 bits 
Bits/(Pixel*Frame) : 0.061 
Stream size : 2.56 GiB (81%) 
Writing library : x265 2.8+66-88ee12651e30:[Windows][MSVC 1915][64 bit] 10bit 
Encoding settings : cpuid=1111039 / frame-threads=2 / numa-pools=4 / wpp / no-pmode / no-pme / no-psnr / no-ssim / log-level=2 / input-csp=1 / input-res=1916x808 / interlace=0 / total-frames=233133 / level-idc=0 / high-tier=1 / uhd-bd=0 / ref=5 / no-allow-non-conformance / no-repeat-headers / annexb / no-aud / no-hrd / info / hash=0 / no-temporal-layers / open-gop / min-keyint=24 / keyint=400 / gop-lookahead=0 / bframes=8 / b-adapt=2 / b-pyramid / bframe-bias=0 / rc-lookahead=100 / lookahead-slices=4 / scenecut=40 / radl=0 / no-intra-refresh / ctu=32 / min-cu-size=8 / no-rect / no-amp / max-tu-size=16 / tu-inter-depth=1 / tu-intra-depth=1 / limit-tu=0 / rdoq-level=2 / dynamic-rd=0.00 / no-ssim-rd / signhide / no-tskip / nr-intra=0 / nr-inter=0 / no-constrained-intra / no-strong-intra-smoothing / max-merge=2 / limit-refs=3 / limit-modes / me=3 / subme=5 / merange=57 / temporal-mvp / weightp / weightb / no-analyze-src-pics / deblock=-3:0 / no-sao / no-sao-non-deblock / rd=4 / no-early-skip / rskip / no-fast-intra / no-tskip-fast / no-cu-lossless / b-intra / no-splitrd-skip / rdpenalty=0 / psy-rd=2.50 / psy-rdoq=0.50 / no-rd-refine / no-lossless / cbqpoffs=0 / crqpoffs=0 / rc=crf / crf=24.0 / qcomp=0.50 / qpstep=4 / stats-write=0 / stats-read=0 / ipratio=1.40 / pbratio=1.30 / aq-mode=3 / aq-strength=1.00 / cutree / zone-count=0 / no-strict-cbr / qg-size=32 / no-rc-grain / qpmax=69 / qpmin=0 / no-const-vbv / sar=0 / overscan=0 / videoformat=5 / range=0 / colorprim=1 / transfer=1 / colormatrix=1 / chromaloc=0 / display-window=0 / max-cll=0,0 / min-luma=0 / max-luma=1023 / log2-max-poc-lsb=8 / vui-timing-info / vui-hrd-info / slices=1 / no-opt-qp-pps / no-opt-ref-list-length-pps / no-multi-pass-opt-rps / scenecut-bias=0.05 / no-opt-cu-delta-qp / no-aq-motion / no-hdr / no-hdr-opt / no-dhdr10-opt / no-idr-recovery-sei / analysis-reuse-level=8 / scale-factor=0 / refine-intra=0 / refine-inter=0 / refine-mv=0 / no-limit-sao / ctu-info=0 / no-lowpass-dct / refine-mv-type=0 / copy-pic=1 / max-ausize-factor=1.0 / no-dynamic-refine / no-single-sei 
Default : Yes 
Forced : No 
Color range : Limited 
Color primaries : BT.709 
Transfer characteristics : BT.709 
Matrix coefficients : BT.709 

Audio 
ID : 2 
Format : AAC 
Format/Info : Advanced Audio Codec 
Format profile : LC 
Codec ID : A_AAC 
Duration : 2 h 41 min 
Bit rate : 511 kb/s 
Channel(s) : 6 channels 
Channel positions : Front: L C R, Side: L R, LFE 
Sampling rate : 48.0 kHz 
Frame rate : 46.875 FPS (1024 spf) 
Compression mode : Lossy 
Delay relative to video : 20 ms 
Stream size : 592 MiB (18%) 
Language : Hindi 
Default : No 
Forced : No 

Subtitle 
ID : 3 
Format : PGS 
Muxing mode : zlib 
Codec ID : S_HDMV/PGS 
Codec ID/Info : Picture based subtitle format used on BDs/HD-DVDs 
Duration : 2 h 38 min 
Bit rate : 36.0 kb/s 
Count of elements : 3730 
Stream size : 40.8 MiB (1%) 
Language : English 
Default : No 
Forced : No 

Menu 
00:00:00.000 : en:Chapter 01 
00:03:34.166 : en:Chapter 02 
00:06:03.708 : en:Chapter 03 
00:11:23.291 : en:Chapter 04 
00:13:45.333 : en:Chapter 05 
00:25:44.041 : en:Chapter 06 
00:36:54.083 : en:Chapter 07 
00:43:53.000 : en:Chapter 08 
00:53:12.875 : en:Chapter 09 
01:00:22.625 : en:Chapter 10 
01:07:07.375 : en:Chapter 11 
01:12:40.375 : en:Chapter 12 
01:13:59.166 : en:Chapter 13 
01:21:29.083 : en:Chapter 14 
01:27:29.541 : en:Chapter 15 
01:30:50.041 : en:Chapter 16 
01:33:47.958 : en:Chapter 17 
01:41:24.000 : en:Chapter 18 
01:52:20.083 : en:Chapter 19 
02:08:00.875 : en:Chapter 20 
02:15:58.000 : en:Chapter 21 
02:17:41.875 : en:Chapter 22 
02:37:39.291 : en:Chapter 23

Download

File: Guru (2007) (1080p BluRay x265 Natty).mkv (3.2 GB)

Movie: Google Drive

Leave a Reply