Gangs of Wasseypur (2012) Part 1-2 (1080p BluRay x265 HEVC 10bit AAC 5.1 Hindi Natty)

Info

Plot: Shahid Khan is exiled after impersonating the legendary Sultana Daku in order to rob British trains. Now outcast, Shahid becomes a worker at Ramadhir Singh’s colliery, only to spur a revenge battle that passes on to generations. At the turn of the decade, Shahid’s son, the philandering Sardar Khan vows to get his father’s honor back, becoming the most feared man of Wasseypur.

Encode

Source:

GANGS OF WASSEYPUR 1 & 2 2012 COMPLETE1080P BLU-RAY AVC DTS-HDMA 5.1-DTONE | 87 GB | DesiTorrents

Mediainfo

General 
Format                                   : Matroska 
Format version                           : Version 4 / Version 2 
File size                                : 4.17 GiB 
Duration                                 : 2 h 39 min 
Overall bit rate                         : 3 747 kb/s 
Movie name                               : GOW 2 
Encoded date                             : UTC 2018-09-15 23:35:24 
Writing application                      : mkvmerge v26.0.0 ('In The Game') 64-bit 
Writing library                          : libebml v1.3.6 + libmatroska v1.4.9 
Writing frontend                         : Natty 

Video 
ID                                       : 1 
Format                                   : HEVC 
Format/Info                              : High Efficiency Video Coding 
Format profile                           : Main [email protected]@Main 
Codec ID                                 : V_MPEGH/ISO/HEVC 
Duration                                 : 2 h 39 min 
Bit rate                                 : 3 215 kb/s 
Width                                    : 1 920 pixels 
Height                                   : 806 pixels 
Display aspect ratio                     : 2.40:1 
Frame rate mode                          : Constant 
Frame rate                               : 24.000 FPS 
Color space                              : YUV 
Chroma subsampling                       : 4:2:0 
Bit depth                                : 10 bits 
Bits/(Pixel*Frame)                       : 0.087 
Stream size                              : 3.58 GiB (86%) 
Writing library                          : x265 2.8+66-88ee12651e30:[Windows][MSVC 1915][64 bit] 10bit 
Encoding settings                        : cpuid=1111039 / frame-threads=2 / numa-pools=4 / wpp / no-pmode / no-pme / no-psnr / no-ssim / log-level=2 / input-csp=1 / input-res=1920x806 / interlace=0 / total-frames=229648 / level-idc=0 / high-tier=1 / uhd-bd=0 / ref=5 / no-allow-non-conformance / no-repeat-headers / annexb / no-aud / no-hrd / info / hash=0 / no-temporal-layers / open-gop / min-keyint=24 / keyint=400 / gop-lookahead=0 / bframes=8 / b-adapt=2 / b-pyramid / bframe-bias=0 / rc-lookahead=100 / lookahead-slices=4 / scenecut=40 / radl=0 / no-intra-refresh / ctu=32 / min-cu-size=8 / no-rect / no-amp / max-tu-size=16 / tu-inter-depth=1 / tu-intra-depth=1 / limit-tu=0 / rdoq-level=2 / dynamic-rd=0.00 / no-ssim-rd / signhide / no-tskip / nr-intra=0 / nr-inter=0 / no-constrained-intra / no-strong-intra-smoothing / max-merge=2 / limit-refs=3 / limit-modes / me=3 / subme=5 / merange=57 / temporal-mvp / weightp / weightb / no-analyze-src-pics / deblock=-3:0 / no-sao / no-sao-non-deblock / rd=4 / no-early-skip / rskip / no-fast-intra / no-tskip-fast / no-cu-lossless / b-intra / no-splitrd-skip / rdpenalty=0 / psy-rd=2.50 / psy-rdoq=0.50 / no-rd-refine / no-lossless / cbqpoffs=0 / crqpoffs=0 / rc=crf / crf=22.0 / qcomp=0.50 / qpstep=4 / stats-write=0 / stats-read=0 / ipratio=1.40 / pbratio=1.30 / aq-mode=3 / aq-strength=1.00 / cutree / zone-count=0 / no-strict-cbr / qg-size=32 / no-rc-grain / qpmax=69 / qpmin=0 / no-const-vbv / sar=0 / overscan=0 / videoformat=5 / range=0 / colorprim=1 / transfer=1 / colormatrix=1 / chromaloc=0 / display-window=0 / max-cll=0,0 / min-luma=0 / max-luma=1023 / log2-max-poc-lsb=8 / vui-timing-info / vui-hrd-info / slices=1 / no-opt-qp-pps / no-opt-ref-list-length-pps / no-multi-pass-opt-rps / scenecut-bias=0.05 / no-opt-cu-delta-qp / no-aq-motion / no-hdr / no-hdr-opt / no-dhdr10-opt / no-idr-recovery-sei / analysis-reuse-level=8 / scale-factor=0 / refine-intra=0 / refine-inter=0 / refine-mv=0 / no-limit-sao / ctu-info=0 / no-lowpass-dct / refine-mv-type=0 / copy-pic=1 / max-ausize-factor=1.0 / no-dynamic-refine / no-single-sei 
Default                                  : Yes 
Forced                                   : No 
Color range                              : Limited 
Color primaries                          : BT.709 
Transfer characteristics                 : BT.709 
Matrix coefficients                      : BT.709 

Audio #1 
ID                                       : 2 
Format                                   : AAC 
Format/Info                              : Advanced Audio Codec 
Format profile                           : LC 
Codec ID                                 : A_AAC 
Duration                                 : 2 h 39 min 
Bit rate                                 : 459 kb/s 
Channel(s)                               : 6 channels 
Channel positions                        : Front: L C R, Side: L R, LFE 
Sampling rate                            : 48.0 kHz 
Frame rate                               : 46.875 FPS (1024 spf) 
Compression mode                         : Lossy 
Delay relative to video                  : 20 ms 
Stream size                              : 524 MiB (12%) 
Language                                 : Hindi 
Default                                  : No 
Forced                                   : No 

Audio #2 
ID                                       : 3 
Format                                   : AAC 
Format/Info                              : Advanced Audio Codec 
Format profile                           : HE-AAC / LC 
Codec ID                                 : A_AAC 
Duration                                 : 2 h 39 min 
Bit rate                                 : 66.2 kb/s 
Channel(s)                               : 2 channels 
Channel positions                        : Front: L R 
Sampling rate                            : 48.0 kHz / 24.0 kHz 
Frame rate                               : 23.438 FPS (1024 spf) 
Compression mode                         : Lossy 
Delay relative to video                  : 40 ms 
Stream size                              : 75.0 MiB (2%) 
Title                                    : Commentary 
Language                                 : English 
Default                                  : No 
Forced                                   : No 

Subtitle 
ID                                       : 4 
Format                                   : PGS 
Muxing mode                              : zlib 
Codec ID                                 : S_HDMV/PGS 
Codec ID/Info                            : Picture based subtitle format used on BDs/HD-DVDs 
Duration                                 : 2 h 36 min 
Bit rate                                 : 23.2 kb/s 
Count of elements                        : 3098 
Stream size                              : 25.9 MiB (1%) 
Language                                 : English 
Default                                  : No 
Forced                                   : No 

Menu 
00:00:00.000                             : en:Chapter 01 
00:08:12.666                             : en:Chapter 02 
00:18:06.291                             : en:Chapter 03 
00:25:55.041                             : en:Chapter 04 
00:33:48.791                             : en:Chapter 05 
00:48:08.291                             : en:Chapter 06 
01:01:13.208                             : en:Chapter 07 
01:18:06.541                             : en:Chapter 08 
01:19:57.333                             : en:Chapter 09 
01:24:14.375                             : en:Chapter 10 
01:34:19.708                             : en:Chapter 11 
01:47:52.000                             : en:Chapter 12 
01:59:55.875                             : en:Chapter 13 
02:07:02.666                             : en:Chapter 14 
02:20:18.041                             : en:Chapter 15 
02:36:02.750                             : en:Chapter 16

Download

Gangs of Wasseypur – Part 1 (2012) (1080p BluRay x265 Natty).mkv (3.8 GB): Google Drive

Gangs of Wasseypur – Part 2 (2012) (1080p BluRay x265 Natty).mkv (4.2 GB): Google Drive

Leave a Reply