Dil Chahta Hai (2001) (1080p BluRay x265 HEVC 10bit AAC 5.1 Hindi Natty)

Info

Plot: Dil Chahta Hai is a 2001 Hindi language film written and directed by then-newcomer Farhan Akhtar, starring Aamir Khan, Saif Ali Khan, Akshaye Khanna, Preity Zinta, Sonali Kulkarni and Dimple Kapadia. It is set in modern-day urban Mumbai and focuses on a major period of transition in the lives of three young friends.

Encode

Source:

Dil.Chahta.Hai.•.2001.•.BD50.•.Untouched.BluRay.•.DRs | 44 GB | Hon3yHD

Mediainfo

General 
Format : Matroska 
Format version : Version 4 / Version 2 
File size : 3.58 GiB 
Duration : 3 h 5 min 
Overall bit rate : 2 771 kb/s 
Movie name : Dil Chahta Hai 
Encoded date : UTC 2018-08-20 02:38:24 
Writing application : mkvmerge v25.0.0 ('Prog Noir') 64-bit 
Writing library : libebml v1.3.6 + libmatroska v1.4.9 
Writing frontend : Natty 

Video 
ID : 1 
Format : HEVC 
Format/Info : High Efficiency Video Coding 
Format profile : Main [email protected]@Main 
Codec ID : V_MPEGH/ISO/HEVC 
Duration : 3 h 5 min 
Bit rate : 2 316 kb/s 
Width : 1 920 pixels 
Height : 784 pixels 
Display aspect ratio : 2.40:1 
Frame rate mode : Constant 
Frame rate : 24.000 FPS 
Color space : YUV 
Chroma subsampling : 4:2:0 
Bit depth : 10 bits 
Bits/(Pixel*Frame) : 0.064 
Stream size : 3.00 GiB (84%) 
Writing library : x265 2.8+58-d17bc7714ed2:[Windows][MSVC 1914][64 bit] 10bit 
Encoding settings : cpuid=1111039 / frame-threads=2 / numa-pools=4 / wpp / no-pmode / no-pme / no-psnr / no-ssim / log-level=2 / input-csp=1 / input-res=1920x784 / interlace=0 / total-frames=266644 / level-idc=0 / high-tier=1 / uhd-bd=0 / ref=5 / no-allow-non-conformance / no-repeat-headers / annexb / no-aud / no-hrd / info / hash=0 / no-temporal-layers / open-gop / min-keyint=24 / keyint=400 / gop-lookahead=0 / bframes=8 / b-adapt=2 / b-pyramid / bframe-bias=0 / rc-lookahead=90 / lookahead-slices=4 / scenecut=40 / radl=0 / no-intra-refresh / ctu=32 / min-cu-size=8 / no-rect / no-amp / max-tu-size=16 / tu-inter-depth=1 / tu-intra-depth=1 / limit-tu=0 / rdoq-level=2 / dynamic-rd=0.00 / no-ssim-rd / signhide / no-tskip / nr-intra=0 / nr-inter=0 / no-constrained-intra / no-strong-intra-smoothing / max-merge=2 / limit-refs=3 / limit-modes / me=3 / subme=5 / merange=57 / temporal-mvp / weightp / weightb / no-analyze-src-pics / deblock=-3:0 / no-sao / no-sao-non-deblock / rd=4 / no-early-skip / rskip / no-fast-intra / no-tskip-fast / no-cu-lossless / no-b-intra / no-splitrd-skip / rdpenalty=0 / psy-rd=2.00 / psy-rdoq=0.50 / no-rd-refine / no-lossless / cbqpoffs=0 / crqpoffs=0 / rc=crf / crf=24.0 / qcomp=0.60 / qpstep=4 / stats-write=0 / stats-read=0 / ipratio=1.40 / pbratio=1.30 / aq-mode=3 / aq-strength=1.00 / cutree / zone-count=0 / no-strict-cbr / qg-size=32 / no-rc-grain / qpmax=69 / qpmin=0 / no-const-vbv / sar=0 / overscan=0 / videoformat=5 / range=0 / colorprim=1 / transfer=1 / colormatrix=1 / chromaloc=0 / display-window=0 / max-cll=0,0 / min-luma=0 / max-luma=1023 / log2-max-poc-lsb=8 / vui-timing-info / vui-hrd-info / slices=1 / no-opt-qp-pps / no-opt-ref-list-length-pps / no-multi-pass-opt-rps / scenecut-bias=0.05 / no-opt-cu-delta-qp / no-aq-motion / no-hdr / no-hdr-opt / no-dhdr10-opt / no-idr-recovery-sei / analysis-reuse-level=8 / scale-factor=0 / refine-intra=0 / refine-inter=0 / refine-mv=0 / no-limit-sao / ctu-info=0 / no-lowpass-dct / refine-mv-type=0 / copy-pic=1 / max-ausize-factor=1.0 / no-dynamic-refine / no-single-sei 
Default : Yes 
Forced : No 
Color range : Limited 
Color primaries : BT.709 
Transfer characteristics : BT.709 
Matrix coefficients : BT.709 

Audio 
ID : 2 
Format : AAC 
Format/Info : Advanced Audio Codec 
Format profile : LC 
Codec ID : A_AAC 
Duration : 3 h 5 min 
Bit rate : 450 kb/s 
Channel(s) : 6 channels 
Channel positions : Front: L C R, Side: L R, LFE 
Sampling rate : 48.0 kHz 
Frame rate : 46.875 FPS (1024 spf) 
Compression mode : Lossy 
Delay relative to video : 20 ms 
Stream size : 595 MiB (16%) 
Language : Hindi 
Default : No 
Forced : No 

Subtitle 
ID : 3 
Format : PGS 
Muxing mode : zlib 
Codec ID : S_HDMV/PGS 
Codec ID/Info : Picture based subtitle format used on BDs/HD-DVDs 
Duration : 2 h 56 min 
Bit rate : 13.6 kb/s 
Count of elements : 2188 
Stream size : 17.2 MiB (0%) 
Language : English 
Default : No 
Forced : No 

Menu 
00:00:00.000 : en:Chapter 01 
00:12:08.833 : en:Chapter 02 
00:16:41.875 : en:Chapter 03 
00:22:20.958 : en:Chapter 04 
00:26:22.791 : en:Chapter 05 
00:39:07.000 : en:Chapter 06 
00:41:38.625 : en:Chapter 07 
00:44:30.916 : en:Chapter 08 
00:46:34.000 : en:Chapter 09 
00:48:43.000 : en:Chapter 10 
00:57:55.791 : en:Chapter 11 
00:58:41.916 : en:Chapter 12 
01:04:00.958 : en:Chapter 13 
01:05:03.000 : en:Chapter 14 
01:09:44.750 : en:Chapter 15 
01:25:34.208 : en:Chapter 16 
01:25:44.833 : en:Chapter 17 
01:33:34.083 : en:Chapter 18 
01:39:33.500 : en:Chapter 19 
01:42:54.250 : en:Chapter 20 
01:43:48.541 : en:Chapter 21 
01:48:27.916 : en:Chapter 22 
01:58:08.583 : en:Chapter 23 
02:03:10.458 : en:Chapter 24 
02:22:56.500 : en:Chapter 25 
02:30:21.375 : en:Chapter 26 
02:36:11.041 : en:Chapter 27 
02:40:22.333 : en:Chapter 28 
02:42:20.500 : en:Chapter 29 
02:52:39.916 : en:Chapter 30 
03:01:45.083 : en:Chapter 31

Download

File: Dil Chahta Hai (2001) (1080p BluRay x265 Natty).mkv (3.6 GB)

Movie: Google Drive

Leave a Reply