Dhoom 2 (2006) (1080p BluRay x265 HEVC 10bit AAC 5.1 Hindi Natty)

Info

Plot: In the second installment of the Dhoom series, Jai and Ali are back as the buddy cops on their toughest job so far. “Mr.A” is an international thief who has planned to steal a priceless artifact in Mumbai and the police have got to nab him. But Mr.A manages to steal the artifact and elude the police. He finds his match in Sunehri and they form a partnership. They move on to Rio for their next job, with Jai and Ali hot on their trail. Mr.A whose actual name is Aryan, and Sunehri are drawn towards each other but little does Aryan know of Sunehri’s little secret.

Encode

Source:

Dhoom:2.•.2006.•.BD50.•.Untouched.BluRay.•.DRs 44GB @Hon3yHD

Mediainfo

General 
Format : Matroska 
Format version : Version 4 / Version 2 
File size : 4.26 GiB 
Duration : 2 h 31 min 
Overall bit rate : 4 021 kb/s 
Encoded date : UTC 2018-01-24 16:30:36 
Writing application : mkvmerge v20.0.0 ('I Am The Sun') 64-bit 
Writing library : libebml v1.3.5 + libmatroska v1.4.8 
Writing frontend : Natty 

Video 
ID : 1 
Format : HEVC 
Format/Info : High Efficiency Video Coding 
Format profile : Main [email protected]@Main 
Codec ID : V_MPEGH/ISO/HEVC 
Duration : 2 h 31 min 
Bit rate : 3 502 kb/s 
Width : 1 920 pixels 
Height : 818 pixels 
Display aspect ratio : 2.35:1 
Frame rate mode : Constant 
Frame rate : 24.000 FPS 
Color space : YUV 
Chroma subsampling : 4:2:0 
Bit depth : 10 bits 
Bits/(Pixel*Frame) : 0.093 
Stream size : 3.71 GiB (87%) 
Writing library : x265 2.6+31-3712d13c09bf:[Windows][MSVC 1912][64 bit] 10bit 
Encoding settings : cpuid=1173503 / frame-threads=3 / numa-pools=8 / wpp / no-pmode / no-pme / no-psnr / no-ssim / log-level=2 / input-csp=1 / input-res=1920x818 / interlace=0 / total-frames=218648 / level-idc=0 / high-tier=1 / uhd-bd=0 / ref=6 / no-allow-non-conformance / no-repeat-headers / annexb / no-aud / no-hrd / info / hash=0 / no-temporal-layers / open-gop / min-keyint=24 / keyint=400 / gop-lookahead=0 / bframes=8 / b-adapt=2 / b-pyramid / bframe-bias=0 / rc-lookahead=100 / lookahead-slices=5 / scenecut=40 / radl=0 / no-intra-refresh / ctu=32 / min-cu-size=8 / no-rect / no-amp / max-tu-size=16 / tu-inter-depth=1 / tu-intra-depth=1 / limit-tu=0 / rdoq-level=2 / dynamic-rd=0.00 / no-ssim-rd / signhide / no-tskip / nr-intra=0 / nr-inter=0 / no-constrained-intra / no-strong-intra-smoothing / max-merge=2 / limit-refs=3 / limit-modes / me=3 / subme=5 / merange=57 / temporal-mvp / weightp / no-weightb / no-analyze-src-pics / deblock=-2:0 / no-sao / no-sao-non-deblock / rd=4 / no-early-skip / rskip / no-fast-intra / no-tskip-fast / no-cu-lossless / no-b-intra / no-splitrd-skip / rdpenalty=0 / psy-rd=2.00 / psy-rdoq=1.00 / no-rd-refine / no-lossless / cbqpoffs=0 / crqpoffs=0 / rc=abr / bitrate=3501 / qcomp=0.75 / qpstep=4 / stats-write=0 / stats-read=2 / cplxblur=20.0 / qblur=0.5 / ipratio=1.40 / pbratio=1.30 / aq-mode=3 / aq-strength=0.90 / cutree / zone-count=0 / no-strict-cbr / qg-size=16 / no-rc-grain / qpmax=69 / qpmin=0 / no-const-vbv / sar=0 / overscan=0 / videoformat=5 / range=0 / colorprim=1 / transfer=1 / colormatrix=1 / chromaloc=0 / display-window=0 / max-cll=0,0 / min-luma=0 / max-luma=1023 / log2-max-poc-lsb=8 / vui-timing-info / vui-hrd-info / slices=1 / no-opt-qp-pps / no-opt-ref-list-length-pps / multi-pass-opt-rps / scenecut-bias=0.05 / no-opt-cu-delta-qp / aq-motion / no-hdr / no-hdr-opt / no-dhdr10-opt / analysis-reuse-level=8 / scale-factor=0 / refine-intra=0 / refine-inter=0 / refine-mv=0 / no-limit-sao / ctu-info=0 / no-lowpass-dct / refine-mv-type=0 / copy-pic=1 
Default : Yes 
Forced : No 
Color range : Limited 
Color primaries : BT.709 
Transfer characteristics : BT.709 
Matrix coefficients : BT.709 

Audio 
ID : 2 
Format : AAC 
Format/Info : Advanced Audio Codec 
Format profile : LC 
Codec ID : A_AAC 
Duration : 2 h 31 min 
Bit rate : 494 kb/s 
Channel(s) : 6 channels 
Channel positions : Front: L C R, Side: L R, LFE 
Sampling rate : 48.0 kHz 
Frame rate : 46.875 FPS (1024 spf) 
Compression mode : Lossy 
Delay relative to video : 20 ms 
Stream size : 536 MiB (12%) 
Language : Hindi 
Default : No 
Forced : No 

Subtitle #1 
ID : 3 
Format : PGS 
Muxing mode : zlib 
Codec ID : S_HDMV/PGS 
Codec ID/Info : Picture based subtitle format used on BDs/HD-DVDs 
Duration : 2 h 31 min 
Bit rate : 23.0 kb/s 
Count of elements : 3064 
Stream size : 24.8 MiB (1%) 
Language : English 
Default : Yes 
Forced : No 

Subtitle #2 
ID : 4 
Format : PGS 
Muxing mode : zlib 
Codec ID : S_HDMV/PGS 
Codec ID/Info : Picture based subtitle format used on BDs/HD-DVDs 
Duration : 2 h 31 min 
Bit rate : 10.8 kb/s 
Count of elements : 3064 
Stream size : 11.6 MiB (0%) 
Language : Arabic 
Default : No 
Forced : No 

Subtitle #3 
ID : 5 
Format : PGS 
Muxing mode : zlib 
Codec ID : S_HDMV/PGS 
Codec ID/Info : Picture based subtitle format used on BDs/HD-DVDs 
Duration : 2 h 31 min 
Bit rate : 41.9 kb/s 
Count of elements : 3582 
Stream size : 45.2 MiB (1%) 
Language : Tamil 
Default : No 
Forced : No 

Subtitle #4 
ID : 6 
Format : PGS 
Muxing mode : zlib 
Codec ID : S_HDMV/PGS 
Codec ID/Info : Picture based subtitle format used on BDs/HD-DVDs 
Duration : 2 h 31 min 
Bit rate : 20.7 kb/s 
Count of elements : 3070 
Stream size : 22.3 MiB (1%) 
Language : Telugu 
Default : No 
Forced : No 

Menu 
00:00:00.000 : en:Chapter 1 
00:07:07.583 : en:Chapter 2 
00:10:24.083 : en:Chapter 3 
00:18:14.458 : en:Chapter 4 
00:30:50.875 : en:Chapter 5 
00:36:13.625 : en:Chapter 6 
00:50:10.166 : en:Chapter 7 
01:02:42.208 : en:Chapter 8 
01:07:49.750 : en:Chapter 9 
01:17:53.791 : en:Chapter 10 
01:24:46.458 : en:Chapter 11 
01:34:38.291 : en:Chapter 12 
01:39:18.708 : en:Chapter 13 
01:49:01.250 : en:Chapter 14 
01:56:24.250 : en:Chapter 15 
02:01:28.625 : en:Chapter 16 
02:08:51.416 : en:Chapter 17 
02:11:55.916 : en:Chapter 18 
02:17:25.125 : en:Chapter 19 
02:29:17.208 : en:Chapter 20 
02:31:44.416 : en:Chapter 21

Screencaps

Download

File: Dhoom 2 (2006) (1080p BluRay x265 Natty).mkv (4.3 GB)

Movie: Google Drive

Leave a Reply