Defiance (2008) (1080p BluRay x265 HEVC 10bit AAC 5.1 afm72)

Info

Image result for defiance 2008

Plot: During World War II, four Jewish brothers escape their Nazi-occupied homeland of West Belarus in Poland and join the Soviet partisans to combat the Nazis. The brothers begin the rescue of roughly 1,200 Jews still trapped in the ghettos of Poland. Based on a true story.


Mediainfo

General 
Format : Matroska 
Format version : Version 4 / Version 2 
File size : 6.23 GiB 
Duration : 2 h 16 min 
Overall bit rate : 6 521 kb/s 
Encoded date : UTC 2018-12-10 14:04:28 
Writing application : mkvmerge v29.0.0 ('Like It Or Not') 64-bit 
Writing library : libebml v1.3.6 + libmatroska v1.4.9 
Writing frontend : StaxRip v1.9.0.0 

Video 
ID : 1 
Format : HEVC 
Format/Info : High Efficiency Video Coding 
Format profile : Main [email protected]@Main 
Codec ID : V_MPEGH/ISO/HEVC 
Duration : 2 h 16 min 
Bit rate : 6 000 kb/s 
Width : 1 920 pixels 
Height : 1 080 pixels 
Display aspect ratio : 16:9 
Frame rate mode : Constant 
Frame rate : 23.976 (24000/1001) FPS 
Color space : YUV 
Chroma subsampling : 4:2:0 
Bit depth : 10 bits 
Bits/(Pixel*Frame) : 0.121 
Stream size : 5.73 GiB (92%) 
Writing library : x265 2.9+4-471726d3a046:[Windows][GCC 8.2.0][64 bit] 10bit 
Encoding settings : cpuid=1049583 / frame-threads=3 / numa-pools=8 / wpp / no-pmode / no-pme / no-psnr / no-ssim / log-level=2 / input-csp=1 / input-res=1920x1080 / interlace=0 / total-frames=196800 / level-idc=0 / high-tier=1 / uhd-bd=0 / ref=4 / no-allow-non-conformance / no-repeat-headers / annexb / no-aud / no-hrd / info / hash=0 / no-temporal-layers / open-gop / min-keyint=23 / keyint=250 / gop-lookahead=0 / bframes=8 / b-adapt=2 / b-pyramid / bframe-bias=0 / rc-lookahead=80 / lookahead-slices=4 / scenecut=40 / radl=0 / no-intra-refresh / ctu=64 / min-cu-size=8 / rect / no-amp / max-tu-size=32 / tu-inter-depth=1 / tu-intra-depth=1 / limit-tu=0 / rdoq-level=2 / dynamic-rd=0.00 / no-ssim-rd / signhide / no-tskip / nr-intra=0 / nr-inter=0 / no-constrained-intra / no-strong-intra-smoothing / max-merge=3 / limit-refs=3 / limit-modes / me=3 / subme=5 / merange=57 / temporal-mvp / weightp / no-weightb / no-analyze-src-pics / deblock=-3:-3 / no-sao / no-sao-non-deblock / rd=4 / no-early-skip / rskip / no-fast-intra / no-tskip-fast / no-cu-lossless / no-b-intra / no-splitrd-skip / rdpenalty=0 / psy-rd=2.00 / psy-rdoq=1.50 / no-rd-refine / no-lossless / cbqpoffs=0 / crqpoffs=0 / rc=abr / bitrate=6000 / qcomp=0.60 / qpstep=4 / stats-write=0 / stats-read=2 / cplxblur=20.0 / qblur=0.5 / ipratio=1.40 / pbratio=1.30 / aq-mode=3 / aq-strength=1.00 / cutree / zone-count=0 / no-strict-cbr / qg-size=32 / no-rc-grain / qpmax=69 / qpmin=0 / no-const-vbv / sar=0 / overscan=0 / videoformat=5 / range=0 / colorprim=2 / transfer=2 / colormatrix=2 / chromaloc=0 / display-window=0 / max-cll=0,0 / min-luma=0 / max-luma=1023 / log2-max-poc-lsb=8 / vui-timing-info / vui-hrd-info / slices=1 / no-opt-qp-pps / no-opt-ref-list-length-pps / no-multi-pass-opt-rps / scenecut-bias=0.05 / no-opt-cu-delta-qp / aq-motion / no-hdr / no-hdr-opt / no-dhdr10-opt / no-idr-recovery-sei / analysis-reuse-level=5 / scale-factor=0 / refine-intra=0 / refine-inter=0 / refine-mv=0 / no-limit-sao / ctu-info=0 / no-lowpass-dct / refine-mv-type=0 / copy-pic=1 / max-ausize-factor=1.0 / no-dynamic-refine / no-single-sei 
Default : Yes 
Forced : No 

Audio #1 
ID : 2 
Format : AAC 
Format/Info : Advanced Audio Codec 
Format profile : LC 
Codec ID : A_AAC 
Duration : 2 h 16 min 
Bit rate : 431 kb/s 
Channel(s) : 6 channels 
Channel positions : Front: L C R, Side: L R, LFE 
Sampling rate : 48.0 kHz 
Frame rate : 46.875 FPS (1024 spf) 
Compression mode : Lossy 
Delay relative to video : 20 ms 
Stream size : 422 MiB (7%) 
Language : English 
Default : Yes 
Forced : No 

Audio #2 
ID : 3 
Format : AAC 
Format/Info : Advanced Audio Codec 
Format profile : HE-AAC / LC 
Codec ID : A_AAC 
Duration : 2 h 16 min 
Bit rate : 80.0 kb/s 
Channel(s) : 2 channels 
Channel positions : Front: L R 
Sampling rate : 48.0 kHz / 24.0 kHz 
Frame rate : 23.438 FPS (1024 spf) 
Compression mode : Lossy 
Delay relative to video : 40 ms 
Stream size : 78.3 MiB (1%) 
Title : Commentary 
Language : English 
Default : No 
Forced : No 

Subtitle 
ID : 4 
Format : PGS 
Muxing mode : zlib 
Codec ID : S_HDMV/PGS 
Codec ID/Info : Picture based subtitle format used on BDs/HD-DVDs 
Duration : 2 h 4 min 
Bit rate : 25.5 kb/s 
Count of elements : 2258 
Stream size : 22.6 MiB (0%) 
Language : English 
Default : No 
Forced : No 

Menu 
00:00:00.000 : en:Chapter 1 
00:04:02.033 : en:Chapter 2 
00:10:15.990 : en:Chapter 3 
00:16:22.856 : en:Chapter 4 
00:25:52.968 : en:Chapter 5 
00:35:30.795 : en:Chapter 6 
00:44:16.945 : en:Chapter 7 
00:51:40.514 : en:Chapter 8 
00:58:23.249 : en:Chapter 9 
01:06:06.754 : en:Chapter 10 
01:13:19.812 : en:Chapter 11 
01:20:40.418 : en:Chapter 12 
01:27:14.979 : en:Chapter 13 
01:32:54.151 : en:Chapter 14 
01:37:25.506 : en:Chapter 15 
01:43:05.929 : en:Chapter 16 
01:50:23.158 : en:Chapter 17 
01:55:23.499 : en:Chapter 18 
02:03:32.947 : en:Chapter 19 
02:07:39.401 : en:Chapter 20

Download

File: Defiance (2008) (1080p BluRay x265 afm72).mkv (6.2 GB)

Movie: Google Drive

Featurettes: Google Drive

Leave a Reply