Dilwale Dulhania Le Jayenge (1995) REM v2 (1080p BluRay x265 HEVC 10bit AAC 5.1 Hindi+German Natty)

Info

Plot: Raj is a rich, carefree, happy-go-lucky second generation NRI. Simran is the daughter of Chaudhary Baldev Singh, who in spite of being an NRI is very strict about adherence to Indian values. Simran has left for India to be married to her childhood fiancé. Raj leaves for India with a mission at his hands, to claim his lady love under the noses of her whole family. Thus begins a saga.

Encode

Source:

Dilwale.Dulhania.Le.Jayenge.1995.1080p.AVC.Untouched.BD50-REM.ellie | 47 GB | Hon3yHD

Mediainfo

General 
Format : Matroska 
Format version : Version 4 / Version 2 
File size : 4.08 GiB 
Duration : 3 h 9 min 
Overall bit rate : 3 077 kb/s 
Movie name : DDLJ v2 
Encoded date : UTC 2018-03-23 07:06:42 
Writing application : mkvmerge v21.0.0 ('Tardigrades Will Inherit The Earth') 64-bit 
Writing library : libebml v1.3.5 + libmatroska v1.4.8 
Writing frontend : Natty 

Video 
ID : 1 
Format : HEVC 
Format/Info : High Efficiency Video Coding 
Format profile : Main [email protected]@Main 
Codec ID : V_MPEGH/ISO/HEVC 
Duration : 3 h 9 min 
Bit rate : 2 502 kb/s 
Width : 1 920 pixels 
Height : 818 pixels 
Display aspect ratio : 2.35:1 
Frame rate mode : Constant 
Frame rate : 24.000 FPS 
Color space : YUV 
Chroma subsampling : 4:2:0 
Bit depth : 10 bits 
Bits/(Pixel*Frame) : 0.066 
Stream size : 3.32 GiB (81%) 
Writing library : x265 2.7+12-98e48e8dd6ab:[Windows][MSVC 1900][64 bit] 10bit 
Encoding settings : cpuid=1173503 / frame-threads=2 / numa-pools=4 / wpp / no-pmode / no-pme / no-psnr / no-ssim / log-level=2 / input-csp=1 / input-res=1920x818 / interlace=0 / total-frames=273579 / level-idc=0 / high-tier=1 / uhd-bd=0 / ref=6 / no-allow-non-conformance / no-repeat-headers / annexb / no-aud / no-hrd / info / hash=0 / no-temporal-layers / open-gop / min-keyint=24 / keyint=400 / gop-lookahead=0 / bframes=8 / b-adapt=2 / b-pyramid / bframe-bias=0 / rc-lookahead=100 / lookahead-slices=4 / scenecut=40 / radl=0 / no-intra-refresh / ctu=32 / min-cu-size=8 / no-rect / no-amp / max-tu-size=16 / tu-inter-depth=1 / tu-intra-depth=1 / limit-tu=0 / rdoq-level=0 / dynamic-rd=0.00 / no-ssim-rd / signhide / no-tskip / nr-intra=0 / nr-inter=0 / no-constrained-intra / no-strong-intra-smoothing / max-merge=2 / limit-refs=3 / limit-modes / me=3 / subme=5 / merange=57 / temporal-mvp / weightp / weightb / no-analyze-src-pics / deblock=-3:0 / no-sao / no-sao-non-deblock / rd=4 / no-early-skip / rskip / no-fast-intra / no-tskip-fast / no-cu-lossless / no-b-intra / no-splitrd-skip / rdpenalty=0 / psy-rd=0.00 / psy-rdoq=0.00 / no-rd-refine / no-lossless / cbqpoffs=0 / crqpoffs=0 / rc=abr / bitrate=2501 / qcomp=0.70 / qpstep=4 / stats-write=0 / stats-read=2 / cplxblur=20.0 / qblur=0.5 / ipratio=1.40 / pbratio=1.30 / aq-mode=3 / aq-strength=0.60 / cutree / zone-count=0 / no-strict-cbr / qg-size=32 / no-rc-grain / qpmax=69 / qpmin=0 / no-const-vbv / sar=0 / overscan=0 / videoformat=5 / range=0 / colorprim=1 / transfer=1 / colormatrix=1 / chromaloc=0 / display-window=0 / max-cll=0,0 / min-luma=0 / max-luma=1023 / log2-max-poc-lsb=8 / vui-timing-info / vui-hrd-info / slices=1 / no-opt-qp-pps / no-opt-ref-list-length-pps / multi-pass-opt-rps / scenecut-bias=0.05 / no-opt-cu-delta-qp / aq-motion / no-hdr / no-hdr-opt / no-dhdr10-opt / no-idr-recovery-sei / analysis-reuse-level=8 / scale-factor=0 / refine-intra=0 / refine-inter=0 / refine-mv=0 / no-limit-sao / ctu-info=0 / no-lowpass-dct / refine-mv-type=0 / copy-pic=1 / max-ausize-factor=1.0 / no-dynamic-refine 
Default : Yes 
Forced : No 
Color range : Limited 
Color primaries : BT.709 
Transfer characteristics : BT.709 
Matrix coefficients : BT.709 

Audio #1 
ID : 2 
Format : AAC 
Format/Info : Advanced Audio Codec 
Format profile : LC 
Codec ID : A_AAC 
Duration : 3 h 9 min 
Bit rate : 376 kb/s 
Channel(s) : 6 channels 
Channel positions : Front: L C R, Side: L R, LFE 
Sampling rate : 48.0 kHz 
Frame rate : 46.875 FPS (1024 spf) 
Compression mode : Lossy 
Delay relative to video : 20 ms 
Stream size : 511 MiB (12%) 
Language : Hindi 
Default : Yes 
Forced : No 

Audio #2 
ID : 3 
Format : AAC 
Format/Info : Advanced Audio Codec 
Format profile : LC 
Codec ID : A_AAC 
Duration : 3 h 9 min 
Bit rate : 176 kb/s 
Channel(s) : 2 channels 
Channel positions : Front: L R 
Sampling rate : 48.0 kHz 
Frame rate : 46.875 FPS (1024 spf) 
Compression mode : Lossy 
Delay relative to video : 20 ms 
Stream size : 239 MiB (6%) 
Language : German 
Default : No 
Forced : No 

Subtitle #1 
ID : 4 
Format : UTF-8 
Codec ID : S_TEXT/UTF8 
Codec ID/Info : UTF-8 Plain Text 
Duration : 3 h 8 min 
Bit rate : 43 b/s 
Count of elements : 1422 
Stream size : 60.6 KiB (0%) 
Language : English 
Default : Yes 
Forced : No 

Subtitle #2 
ID : 5 
Format : PGS 
Muxing mode : zlib 
Codec ID : S_HDMV/PGS 
Codec ID/Info : Picture based subtitle format used on BDs/HD-DVDs 
Duration : 3 h 9 min 
Bit rate : 32.4 kb/s 
Count of elements : 3542 
Stream size : 43.8 MiB (1%) 
Language : German 
Default : No 
Forced : No 

Menu 
00:00:00.000 : en:Chapter 01 
00:01:57.958 : en:Chapter 02 
00:04:29.041 : en:Chapter 03 
00:08:37.458 : en:Chapter 04 
00:13:53.833 : en:Chapter 05 
00:17:38.375 : en:Chapter 06 
00:20:24.208 : en:Chapter 07 
00:29:07.166 : en:Chapter 08 
00:34:11.125 : en:Chapter 09 
00:38:20.666 : en:Chapter 10 
00:44:52.666 : en:Chapter 11 
00:53:45.000 : en:Chapter 12 
00:58:14.291 : en:Chapter 13 
01:02:56.125 : en:Chapter 14 
01:07:28.291 : en:Chapter 15 
01:19:48.791 : en:Chapter 16 
01:25:52.583 : en:Chapter 17 
01:33:03.250 : en:Chapter 18 
01:37:13.583 : en:Chapter 19 
01:45:23.750 : en:Chapter 20 
01:53:57.625 : en:Chapter 21 
02:17:28.333 : en:Chapter 22 
02:22:19.791 : en:Chapter 23 
02:23:52.208 : en:Chapter 24 
02:35:07.125 : en:Chapter 25 
02:35:51.208 : en:Chapter 26 
02:40:39.750 : en:Chapter 27 
02:46:07.458 : en:Chapter 28 
02:52:15.541 : en:Chapter 29 
02:54:28.750 : en:Chapter 30 
03:01:49.041 : en:Chapter 31 
03:06:01.166 : en:Chapter 32

Screencaps

Download

File: Dilwale Dulhania Le Jayenge (1995) REM v2 (1080p BluRay x265 Natty).mkv (4.1 GB)

Movie: Google Drive

Leave a Reply