Dallas Buyers Club (2013) (1080p BluRay x265 HEVC 10bit AAC 5.1 afm72)

Info

Image result for Dallas Buyers Club (2013)

Plot: Loosely based on the true-life tale of Ron Woodroof, a drug-taking, women-loving, homophobic man who in 1986 was diagnosed with full blown HIV/AIDS and given thirty days to live.

Encode

Source:

Release: 
Dallas.Buyers.Club.2013.1080p.BluRay.AVC.DTS-HD.MA.5.1-PublicHD

Mediainfo

General 
Format : Matroska 
Format version : Version 4 / Version 2 
File size : 3.71 GiB 
Duration : 1 h 56 min 
Overall bit rate : 4 551 kb/s 
Movie name : Dallas Buyers Club 2013 1080p NOR Blu-ray Remux AVC DTS-HD MA 5.1 - KRaLiMaRKo 
Encoded date : UTC 2018-12-21 13:12:58 
Writing application : mkvmerge v29.0.0 ('Like It Or Not') 64-bit 
Writing library : libebml v1.3.6 + libmatroska v1.4.9 
Cover : Yes 
Attachments : cover.jpg 
Writing frontend : StaxRip v1.9.0.0 

Video 
ID : 1 
Format : HEVC 
Format/Info : High Efficiency Video Coding 
Format profile : Main [email protected]@Main 
Codec ID : V_MPEGH/ISO/HEVC 
Duration : 1 h 56 min 
Bit rate : 4 171 kb/s 
Width : 1 920 pixels 
Height : 804 pixels 
Display aspect ratio : 2.40:1 
Frame rate mode : Constant 
Frame rate : 23.976 (24000/1001) FPS 
Color space : YUV 
Chroma subsampling : 4:2:0 
Bit depth : 10 bits 
Bits/(Pixel*Frame) : 0.113 
Stream size : 3.40 GiB (92%) 
Writing library : x265 2.9+2-7e978ed93d60:[Windows][GCC 8.2.0][64 bit] 10bit 
Encoding settings : cpuid=1111039 / frame-threads=3 / numa-pools=8 / wpp / no-pmode / no-pme / no-psnr / no-ssim / log-level=2 / input-csp=1 / input-res=1920x804 / interlace=0 / total-frames=167780 / level-idc=0 / high-tier=1 / uhd-bd=0 / ref=4 / no-allow-non-conformance / no-repeat-headers / annexb / no-aud / no-hrd / info / hash=0 / no-temporal-layers / open-gop / min-keyint=23 / keyint=250 / gop-lookahead=0 / bframes=8 / b-adapt=2 / b-pyramid / bframe-bias=0 / rc-lookahead=80 / lookahead-slices=4 / scenecut=40 / radl=0 / no-intra-refresh / ctu=64 / min-cu-size=8 / rect / no-amp / max-tu-size=32 / tu-inter-depth=1 / tu-intra-depth=1 / limit-tu=0 / rdoq-level=2 / dynamic-rd=0.00 / no-ssim-rd / signhide / no-tskip / nr-intra=0 / nr-inter=0 / no-constrained-intra / no-strong-intra-smoothing / max-merge=3 / limit-refs=3 / limit-modes / me=3 / subme=5 / merange=57 / temporal-mvp / weightp / no-weightb / no-analyze-src-pics / deblock=-3:-3 / no-sao / no-sao-non-deblock / rd=4 / no-early-skip / rskip / no-fast-intra / no-tskip-fast / no-cu-lossless / no-b-intra / no-splitrd-skip / rdpenalty=0 / psy-rd=2.00 / psy-rdoq=1.00 / no-rd-refine / no-lossless / cbqpoffs=0 / crqpoffs=0 / rc=crf / crf=20.0 / qcomp=0.60 / qpstep=4 / stats-write=0 / stats-read=0 / ipratio=1.40 / pbratio=1.30 / aq-mode=3 / aq-strength=1.00 / cutree / zone-count=0 / no-strict-cbr / qg-size=32 / no-rc-grain / qpmax=69 / qpmin=0 / no-const-vbv / sar=0 / overscan=0 / videoformat=5 / range=0 / colorprim=2 / transfer=2 / colormatrix=2 / chromaloc=0 / display-window=0 / max-cll=0,0 / min-luma=0 / max-luma=1023 / log2-max-poc-lsb=8 / vui-timing-info / vui-hrd-info / slices=1 / no-opt-qp-pps / no-opt-ref-list-length-pps / no-multi-pass-opt-rps / scenecut-bias=0.05 / no-opt-cu-delta-qp / aq-motion / no-hdr / no-hdr-opt / no-dhdr10-opt / no-idr-recovery-sei / analysis-reuse-level=5 / scale-factor=0 / refine-intra=0 / refine-inter=0 / refine-mv=0 / no-limit-sao / ctu-info=0 / no-lowpass-dct / refine-mv-type=0 / copy-pic=1 / max-ausize-factor=1.0 / no-dynamic-refine / no-single-sei 
Default : Yes 
Forced : No 

Audio 
ID : 2 
Format : AAC 
Format/Info : Advanced Audio Codec 
Format profile : LC 
Codec ID : A_AAC 
Duration : 1 h 56 min 
Bit rate : 366 kb/s 
Channel(s) : 6 channels 
Channel positions : Front: L C R, Side: L R, LFE 
Sampling rate : 48.0 kHz 
Frame rate : 46.875 FPS (1024 spf) 
Compression mode : Lossy 
Delay relative to video : 20 ms 
Stream size : 305 MiB (8%) 
Language : English 
Default : No 
Forced : No 

Subtitle 
ID : 3 
Format : PGS 
Muxing mode : zlib 
Codec ID : S_HDMV/PGS 
Codec ID/Info : Picture based subtitle format used on BDs/HD-DVDs 
Duration : 1 h 50 min 
Bit rate : 40.0 kb/s 
Count of elements : 2977 
Stream size : 31.7 MiB (1%) 
Title : SDH 
Language : English 
Default : Yes 
Forced : No 

Menu 
00:00:00.000 : en:00:00:00.000 
00:08:05.360 : en:00:08:05.360 
00:15:37.854 : en:00:15:37.854 
00:22:06.951 : en:00:22:06.951 
00:28:50.145 : en:00:28:50.145 
00:36:46.496 : en:00:36:46.496 
00:42:47.148 : en:00:42:47.148 
00:50:19.767 : en:00:50:19.767 
00:56:54.703 : en:00:56:54.703 
01:04:39.751 : en:01:04:39.751 
01:12:24.924 : en:01:12:24.924 
01:19:42.486 : en:01:19:42.486 
01:26:29.059 : en:01:26:29.059 
01:33:11.169 : en:01:33:11.169 
01:40:17.678 : en:01:40:17.678 
01:52:00.047 : en:01:52:00.047

Download

File: Dallas Buyers Club (2013) (1080p BluRay x265 afm72).mkv (3.7 GB)

Movie: Google Drive

Featurettes: Google Drive

Leave a Reply