Constantine City of Demons – The Movie (2018) (1080p BluRay x265 HEVC 10bit AAC 5.1 YOGI)

Info

Plot: An animated series centering on the adventures of supernatural detective John Constantine.

Encode

Source:

Constantine.City.of.Demons.The.Movie.2018.1080p.BluRay.REMUX.AVC.DTS-HD.MA.5.1-EPSiLON.mkv (10.91 GB)

Mediainfo

General 
Format : Matroska 
Format version : Version 4 / Version 2 
File size : 2.68 GiB 
Duration : 1 h 30 min 
Overall bit rate : 4 251 kb/s 
Movie name : Constantine: City of Demons - The Movie (2018) 
Encoded date : UTC 2018-10-16 18:05:41 
Writing application : mkvmerge v15.0.0 ('Duel with the Devil') 64-bit 
Writing library : libebml v1.3.5 + libmatroska v1.4.5 
Writing frontend : StaxRip v1.7.0.0 

Video 
ID : 1 
Format : HEVC 
Format/Info : High Efficiency Video Coding 
Format profile : Main [email protected]@Main 
Codec ID : V_MPEGH/ISO/HEVC 
Duration : 1 h 30 min 
Bit rate : 3 801 kb/s 
Width : 1 920 pixels 
Height : 1 080 pixels 
Display aspect ratio : 16:9 
Frame rate mode : Constant 
Frame rate : 23.976 (24000/1001) FPS 
Color space : YUV 
Chroma subsampling : 4:2:0 
Bit depth : 10 bits 
Bits/(Pixel*Frame) : 0.076 
Stream size : 2.39 GiB (89%) 
Writing library : x265 2.7+1-2aa737a99f51:[Windows][GCC 7.3.0][64 bit] 10bit 
Encoding settings : cpuid=1050111 / frame-threads=3 / numa-pools=8 / wpp / no-pmode / no-pme / no-psnr / no-ssim / log-level=2 / input-csp=1 / input-res=1920x1080 / interlace=0 / total-frames=129695 / level-idc=0 / high-tier=1 / uhd-bd=0 / ref=4 / no-allow-non-conformance / no-repeat-headers / annexb / no-aud / no-hrd / info / hash=0 / no-temporal-layers / open-gop / min-keyint=23 / keyint=250 / gop-lookahead=0 / bframes=8 / b-adapt=2 / b-pyramid / bframe-bias=0 / rc-lookahead=30 / lookahead-slices=4 / scenecut=40 / radl=0 / no-intra-refresh / ctu=64 / min-cu-size=8 / rect / no-amp / max-tu-size=32 / tu-inter-depth=2 / tu-intra-depth=2 / limit-tu=4 / rdoq-level=2 / dynamic-rd=0.00 / no-ssim-rd / signhide / no-tskip / nr-intra=0 / nr-inter=0 / no-constrained-intra / strong-intra-smoothing / max-merge=3 / limit-refs=2 / limit-modes / me=3 / subme=5 / merange=57 / temporal-mvp / weightp / weightb / no-analyze-src-pics / deblock=0:0 / sao / no-sao-non-deblock / rd=4 / no-early-skip / rskip / no-fast-intra / no-tskip-fast / no-cu-lossless / b-intra / no-splitrd-skip / rdpenalty=0 / psy-rd=2.00 / psy-rdoq=1.00 / no-rd-refine / no-lossless / cbqpoffs=0 / crqpoffs=0 / rc=crf / crf=18.0 / qcomp=0.60 / qpstep=4 / stats-write=0 / stats-read=0 / ipratio=1.40 / pbratio=1.30 / aq-mode=3 / aq-strength=1.00 / cutree / zone-count=0 / no-strict-cbr / qg-size=32 / no-rc-grain / qpmax=69 / qpmin=0 / no-const-vbv / sar=0 / overscan=0 / videoformat=5 / range=0 / colorprim=2 / transfer=2 / colormatrix=2 / chromaloc=0 / display-window=0 / max-cll=0,0 / min-luma=0 / max-luma=1023 / log2-max-poc-lsb=8 / vui-timing-info / vui-hrd-info / slices=1 / no-opt-qp-pps / no-opt-ref-list-length-pps / no-multi-pass-opt-rps / scenecut-bias=0.05 / no-opt-cu-delta-qp / no-aq-motion / no-hdr / no-hdr-opt / no-dhdr10-opt / analysis-reuse-level=5 / scale-factor=0 / refine-intra=0 / refine-inter=0 / refine-mv=0 / no-limit-sao / ctu-info=0 / no-lowpass-dct / refine-mv-type=0 / copy-pic=1 
Default : Yes 
Forced : No 

Audio 
ID : 2 
Format : AAC 
Format/Info : Advanced Audio Codec 
Format profile : LC 
Codec ID : A_AAC 
Duration : 1 h 30 min 
Bit rate : 432 kb/s 
Channel(s) : 6 channels 
Channel positions : Front: L C R, Side: L R, LFE 
Sampling rate : 48.0 kHz 
Frame rate : 46.875 FPS (1024 spf) 
Compression mode : Lossy 
Delay relative to video : 20 ms 
Stream size : 279 MiB (10%) 
Language : English 
Default : No 
Forced : No 

Subtitle 
ID : 3 
Format : PGS 
Muxing mode : zlib 
Codec ID : S_HDMV/PGS 
Codec ID/Info : Picture based subtitle format used on BDs/HD-DVDs 
Duration : 1 h 27 min 
Bit rate : 37.9 kb/s 
Count of elements : 2710 
Stream size : 23.7 MiB (1%) 
Language : English 
Default : No 
Forced : No 

Menu 
00:00:00.000 : en:Chapter 1 
00:14:02.717 : en:Chapter 2 
00:24:02.566 : en:Chapter 3 
00:34:51.423 : en:Chapter 4 
00:48:08.844 : en:Chapter 5 
00:55:09.890 : en:Chapter 6 
01:03:57.375 : en:Chapter 7 
01:10:39.110 : en:Chapter 8 
01:22:02.876 : en:Chapter 9 
01:27:28.702 : en:Chapter 10

Download

File: Constantine City of Demons – The Movie (2018) (1080p BluRay x265 YOGI).mkv (2.7 GB)

Movie: Google Drive

Leave a Reply