Band Baaja Baaraat (2010) (1080p BluRay x265 HEVC 10bit AAC 5.1 Hindi Natty)

Info

Plot: Shruti (Anushka Sharma) and Bittoo (Ranveer Singh) are two 20-something years olds who have just graduated from Delhi University. Apart from this the two are very different from each other. Shruti, who is from a middle-class household, is very driven, ambitious and focused, while Bittoo is a slacker who is mostly interested in having fun with his friends. A chance meeting leads them to reluctantly start a business venture as Wedding Planners together, with one strict rule: not to mix business with pleasure. Through their business they experience the ups and downs of the lavish world of the glamour and glitz of Delhi weddings, something that will test their friendship over time and eventually make them discover one another. What will be the ending of this sweet story!

Encode

Source:

Band.Baaja.Baarat.•.2010.•.BD50.•.Untouched.BluRay.•.DRs (40 GB) @ Hon3yHD

Mediainfo

General 
Format : Matroska 
Format version : Version 4 / Version 2 
File size : 3.73 GiB 
Duration : 2 h 23 min 
Overall bit rate : 3 730 kb/s 
Encoded date : UTC 2017-03-24 00:42:23 
Writing application : mkvmerge v9.9.0 ('Pick Up') 64bit 
Writing library : libebml v1.3.4 + libmatroska v1.4.5 
Writing frontend : StaxRip 1.4.0.8 

Video 
ID : 1 
Format : HEVC 
Format/Info : High Efficiency Video Coding 
Format profile : Main [email protected]@Main 
Codec ID : V_MPEGH/ISO/HEVC 
Duration : 2 h 19 min 
Bit rate : 3 386 kb/s 
Width : 1 920 pixels 
Height : 816 pixels 
Display aspect ratio : 2.35:1 
Frame rate mode : Constant 
Frame rate : 24.000 FPS 
Color space : YUV 
Chroma subsampling : 4:2:0 
Bit depth : 10 bits 
Bits/(Pixel*Frame) : 0.090 
Stream size : 3.29 GiB (88%) 
Writing library : x265 2.3+23-97435a0870be:[Windows][GCC 7.0.1][64 bit] 10bit 
Encoding settings : cpuid=1173503 / frame-threads=2 / numa-pools=4 / wpp / no-pmode / no-pme / no-psnr / no-ssim / log-level=2 / input-csp=1 / input-res=1920x816 / interlace=0 / total-frames=200592 / level-idc=0 / high-tier=1 / uhd-bd=0 / ref=5 / no-allow-non-conformance / no-repeat-headers / annexb / no-aud / no-hrd / info / hash=0 / no-temporal-layers / open-gop / min-keyint=20 / keyint=400 / bframes=8 / b-adapt=2 / b-pyramid / bframe-bias=0 / rc-lookahead=60 / lookahead-slices=5 / scenecut=40 / no-intra-refresh / ctu=64 / min-cu-size=8 / no-rect / no-amp / max-tu-size=32 / tu-inter-depth=1 / tu-intra-depth=1 / limit-tu=0 / rdoq-level=2 / dynamic-rd=0.00 / signhide / no-tskip / nr-intra=0 / nr-inter=0 / no-constrained-intra / no-strong-intra-smoothing / max-merge=2 / limit-refs=3 / no-limit-modes / me=3 / subme=5 / merange=57 / temporal-mvp / weightp / no-weightb / no-analyze-src-pics / deblock=-3:-3 / sao / no-sao-non-deblock / rd=4 / no-early-skip / rskip / no-fast-intra / no-tskip-fast / no-cu-lossless / no-b-intra / rdpenalty=0 / psy-rd=2.00 / psy-rdoq=5.00 / no-rd-refine / analysis-mode=0 / no-lossless / cbqpoffs=0 / crqpoffs=0 / rc=abr / bitrate=3385 / qcomp=0.70 / qpstep=4 / stats-write=0 / stats-read=2 / cplxblur=20.0 / qblur=0.5 / ipratio=1.40 / pbratio=1.30 / aq-mode=3 / aq-strength=1.00 / cutree / zone-count=0 / no-strict-cbr / qg-size=32 / no-rc-grain / qpmax=69 / qpmin=0 / sar=0 / overscan=0 / videoformat=5 / range=0 / colorprim=1 / transfer=1 / colormatrix=1 / chromaloc=0 / display-window=0 / max-cll=0,0 / min-luma=0 / max-luma=1023 / log2-max-poc-lsb=8 / vui-timing-info / vui-hrd-info / slices=1 / opt-qp-pps / opt-ref-list-length-pps / multi-pass-opt-rps / scenecut-bias=0.05 / no-opt-cu-delta-qp / aq-motion / hdr / no-hdr-opt / refine-level=5 
Default : Yes 
Forced : No 
Color range : Limited 
Color primaries : BT.709 
Transfer characteristics : BT.709 
Matrix coefficients : BT.709 

Audio 
ID : 2 
Format : AAC 
Format/Info : Advanced Audio Codec 
Format profile : LC 
Codec ID : A_AAC 
Duration : 2 h 23 min 
Bit rate : 411 kb/s 
Channel(s) : 6 channels 
Channel positions : Front: L C R, Side: L R, LFE 
Sampling rate : 48.0 kHz 
Frame rate : 46.875 FPS (1024 spf) 
Compression mode : Lossy 
Delay relative to video : 20 ms 
Stream size : 421 MiB (11%) 
Language : Hindi 
Default : No 
Forced : No 

Subtitle #1 
ID : 3 
Format : PGS 
Muxing mode : zlib 
Codec ID : S_HDMV/PGS 
Codec ID/Info : Picture based subtitle format used on BDs/HD-DVDs 
Duration : 2 h 14 min 
Bit rate : 11.7 kb/s 
Count of elements : 3906 
Stream size : 11.2 MiB (0%) 
Language : English 
Default : No 
Forced : No 

Subtitle #2 
ID : 4 
Format : PGS 
Muxing mode : zlib 
Codec ID : S_HDMV/PGS 
Codec ID/Info : Picture based subtitle format used on BDs/HD-DVDs 
Duration : 2 h 14 min 
Bit rate : 8 838 b/s 
Count of elements : 3896 
Stream size : 8.52 MiB (0%) 
Language : Arabic 
Default : No 
Forced : No 

Menu 
00:00:00.000 : en:Chapter 01 
00:04:00.583 : en:Chapter 02 
00:07:36.000 : en:Chapter 03 
00:10:42.041 : en:Chapter 04 
00:17:06.416 : en:Chapter 05 
00:20:11.291 : en:Chapter 06 
00:24:25.416 : en:Chapter 07 
00:29:37.125 : en:Chapter 08 
00:36:01.875 : en:Chapter 09 
00:40:49.541 : en:Chapter 10 
00:48:28.166 : en:Chapter 11 
00:53:02.500 : en:Chapter 12 
00:58:39.916 : en:Chapter 13 
01:03:50.000 : en:Chapter 14 
01:10:28.333 : en:Chapter 15 
01:14:27.125 : en:Chapter 16 
01:23:53.041 : en:Chapter 17 
01:30:52.875 : en:Chapter 18 
01:34:12.000 : en:Chapter 19 
01:39:22.708 : en:Chapter 20 
01:46:18.125 : en:Chapter 21 
01:48:44.500 : en:Chapter 22 
01:54:20.958 : en:Chapter 23 
01:59:57.958 : en:Chapter 24 
02:07:57.125 : en:Chapter 25 
02:15:19.666 : en:Chapter 26

Download

File: Band Baaja Baaraat (2010) (1080p BluRay x265 Natty).mkv (3.7 GB)

Movie: Google Drive

1 thought on “Band Baaja Baaraat (2010) (1080p BluRay x265 HEVC 10bit AAC 5.1 Hindi Natty)

Leave a Reply