Avatar (2009) EE (2160p UpRez BluRay x265 HEVC 10bit AAC 5.1 Joy)

Info

Plot: In the 22nd century, a paraplegic Marine is dispatched to the moon Pandora on a unique mission, but becomes torn between following orders and protecting an alien civilization.

Encode

Release: Avatar.2009.Extended.UHD.Re-Grade.4000nit.2160p.HEVC.HDR.IVA(RUS.UKR.ENG).ExKinoRay.mkv (101.95 GBs)
*This source is an upsample as well as SDR to HDR conversion.

Mediainfo

General
Format                                   : Matroska
Format version                           : Version 4 / Version 2
File size                                : 19.3 GiB
Duration                                 : 2 h 58 min
Overall bit rate                         : 15.5 Mb/s
Movie name                               : Avatar (2009) Extended  [2160p x265 10bit FS80 Joy] [UTR]
Encoded date                             : UTC 2020-04-11 21:52:25
Writing application                      : mkvmerge v40.0.0 ('Old Town Road + Pony') 64-bit
Writing library                          : libebml v1.3.9 + libmatroska v1.5.2
Cover                                    : Yes
Attachments                              : cover.jpg / Avatar_0.ttf / Europe_Ext_0.ttf
Writing frontend                         : StaxRip v2.0.2.0, a JoyBell Encode

Video
ID                                       : 1
Format                                   : HEVC
Format/Info                              : High Efficiency Video Coding
Format profile                           : Main [email protected]@Main
Codec ID                                 : V_MPEGH/ISO/HEVC
Duration                                 : 2 h 58 min
Bit rate                                 : 15.0 Mb/s
Width                                    : 3 840 pixels
Height                                   : 2 160 pixels
Display aspect ratio                     : 16:9
Frame rate mode                          : Constant
Frame rate                               : 23.976 (24000/1001) FPS
Color space                              : YUV
Chroma subsampling                       : 4:2:0
Bit depth                                : 10 bits
Bits/(Pixel*Frame)                       : 0.075
Stream size                              : 18.7 GiB (97%)
Writing library                          : x265 3.2+9-971180b100f8:[Windows][GCC 9.2.0][64 bit] 10bit
Encoding settings                        : cpuid=1111039 / frame-threads=4 / numa-pools=16 / wpp / no-pmode / no-pme / no-psnr / ssim / log-level=2 / input-csp=1 / input-res=3840x2160 / interlace=0 / total-frames=256292 / level-idc=0 / high-tier=1 / uhd-bd=0 / ref=3 / no-allow-non-conformance / no-repeat-headers / annexb / no-aud / no-hrd / info / hash=0 / no-temporal-layers / open-gop / min-keyint=23 / keyint=250 / gop-lookahead=0 / bframes=8 / b-adapt=2 / b-pyramid / bframe-bias=40 / rc-lookahead=80 / lookahead-slices=8 / scenecut=40 / radl=0 / no-splice / no-intra-refresh / ctu=64 / min-cu-size=8 / no-rect / no-amp / max-tu-size=32 / tu-inter-depth=1 / tu-intra-depth=1 / limit-tu=0 / rdoq-level=2 / dynamic-rd=0.00 / ssim-rd / signhide / no-tskip / nr-intra=0 / nr-inter=0 / constrained-intra / strong-intra-smoothing / max-merge=3 / limit-refs=1 / no-limit-modes / me=3 / subme=5 / merange=57 / temporal-mvp / no-frame-dup / no-hme / weightp / no-weightb / no-analyze-src-pics / deblock=0:0 / no-sao / no-sao-non-deblock / rd=3 / selective-sao=0 / early-skip / rskip / no-fast-intra / no-tskip-fast / no-cu-lossless / b-intra / splitrd-skip / rdpenalty=0 / psy-rd=0.00 / psy-rdoq=0.00 / no-rd-refine / no-lossless / cbqpoffs=0 / crqpoffs=0 / rc=abr / bitrate=15000 / qcomp=0.60 / qpstep=4 / stats-write=0 / stats-read=2 / cplxblur=20.0 / qblur=0.5 / ipratio=1.40 / pbratio=1.30 / aq-mode=3 / aq-strength=0.30 / cutree / zone-count=0 / no-strict-cbr / qg-size=32 / no-rc-grain / qpmax=69 / qpmin=0 / no-const-vbv / sar=0 / overscan=0 / videoformat=5 / range=0 / colorprim=1 / transfer=1 / colormatrix=1 / chromaloc=0 / display-window=0 / cll=0,0 / min-luma=0 / max-luma=1023 / log2-max-poc-lsb=8 / vui-timing-info / vui-hrd-info / slices=1 / no-opt-qp-pps / no-opt-ref-list-length-pps / multi-pass-opt-rps / scenecut-bias=0.05 / no-opt-cu-delta-qp / no-aq-motion / no-hdr / no-hdr-opt / no-dhdr10-opt / no-idr-recovery-sei / analysis-load / analysis-reuse-level=10 / scale-factor=0 / refine-intra=0 / refine-inter=0 / refine-mv=1 / refine-ctu-distortion=0 / no-limit-sao / ctu-info=0 / no-lowpass-dct / refine-analysis-type=0 / copy-pic=1 / max-ausize-factor=1.0 / no-dynamic-refine / no-single-sei / no-hevc-aq / no-svt / no-field / qp-adaptation-range=1.00
Default                                  : Yes
Forced                                   : No
Color range                              : Limited
Color primaries                          : BT.709
Transfer characteristics                 : BT.709
Matrix coefficients                      : BT.709

Audio
ID                                       : 2
Format                                   : AAC
Format/Info                              : Advanced Audio Codec
Format profile                           : LC
Codec ID                                 : A_AAC
Duration                                 : 2 h 58 min
Bit rate                                 : 479 kb/s
Channel(s)                               : 6 channels
Channel positions                        : Front: L C R, Side: L R, LFE
Sampling rate                            : 48.0 kHz
Frame rate                               : 46.875 FPS (1024 spf)
Compression mode                         : Lossy
Delay relative to video                  : 12 ms
Stream size                              : 610 MiB (3%)
Language                                 : English
Default                                  : No
Forced                                   : No

Subtitle #1
ID                                       : 3
Format                                   : UTF-8
Codec ID                                 : S_TEXT/UTF8
Codec ID/Info                            : UTF-8 Plain Text
Duration                                 : 1 h 59 min
Bit rate                                 : 2 b/s
Count of elements                        : 82
Stream size                              : 1.92 KiB (0%)
Title                                    : Forced
Language                                 : English
Default                                  : No
Forced                                   : Yes

Subtitle #2
ID                                       : 4
Format                                   : UTF-8
Codec ID                                 : S_TEXT/UTF8
Codec ID/Info                            : UTF-8 Plain Text
Duration                                 : 1 h 59 min
Bit rate                                 : 2 b/s
Count of elements                        : 82
Stream size                              : 1.92 KiB (0%)
Language                                 : English
Default                                  : No
Forced                                   : Yes

Subtitle #3
ID                                       : 5
Format                                   : UTF-8
Codec ID                                 : S_TEXT/UTF8
Codec ID/Info                            : UTF-8 Plain Text
Duration                                 : 2 h 53 min
Bit rate                                 : 40 b/s
Count of elements                        : 1683
Stream size                              : 51.1 KiB (0%)
Language                                 : English
Default                                  : No
Forced                                   : No

Subtitle #4
ID                                       : 6
Format                                   : VobSub
Muxing mode                              : zlib
Codec ID                                 : S_VOBSUB
Codec ID/Info                            : Picture based subtitle format used on DVDs
Duration                                 : 2 h 57 min
Bit rate                                 : 6 351 b/s
Count of elements                        : 1499
Stream size                              : 8.06 MiB (0%)
Language                                 : Russian
Default                                  : No
Forced                                   : No

Subtitle #5
ID                                       : 7
Format                                   : VobSub
Muxing mode                              : zlib
Codec ID                                 : S_VOBSUB
Codec ID/Info                            : Picture based subtitle format used on DVDs
Duration                                 : 2 h 43 min
Bit rate                                 : 265 b/s
Count of elements                        : 86
Stream size                              : 317 KiB (0%)
Language                                 : Russian
Default                                  : No
Forced                                   : Yes

Subtitle #6
ID                                       : 8
Format                                   : VobSub
Muxing mode                              : zlib
Codec ID                                 : S_VOBSUB
Codec ID/Info                            : Picture based subtitle format used on DVDs
Duration                                 : 2 h 57 min
Bit rate                                 : 6 468 b/s
Count of elements                        : 1493
Stream size                              : 8.21 MiB (0%)
Language                                 : English
Default                                  : No
Forced                                   : No

Subtitle #7
ID                                       : 9
Format                                   : VobSub
Muxing mode                              : zlib
Codec ID                                 : S_VOBSUB
Codec ID/Info                            : Picture based subtitle format used on DVDs
Duration                                 : 2 h 43 min
Bit rate                                 : 253 b/s
Count of elements                        : 83
Stream size                              : 303 KiB (0%)
Language                                 : English
Default                                  : No
Forced                                   : Yes

Subtitle #8
ID                                       : 10
Format                                   : VobSub
Muxing mode                              : zlib
Codec ID                                 : S_VOBSUB
Codec ID/Info                            : Picture based subtitle format used on DVDs
Duration                                 : 2 h 57 min
Bit rate                                 : 8 331 b/s
Count of elements                        : 2203
Stream size                              : 10.6 MiB (0%)
Language                                 : English
Default                                  : No
Forced                                   : No

Subtitle #9
ID                                       : 11
Format                                   : VobSub
Muxing mode                              : zlib
Codec ID                                 : S_VOBSUB
Codec ID/Info                            : Picture based subtitle format used on DVDs
Duration                                 : 2 h 42 min
Bit rate                                 : 259 b/s
Count of elements                        : 83
Stream size                              : 309 KiB (0%)
Language                                 : English
Default                                  : No
Forced                                   : No

Subtitle #10
ID                                       : 12
Format                                   : UTF-8
Codec ID                                 : S_TEXT/UTF8
Codec ID/Info                            : UTF-8 Plain Text
Duration                                 : 1 h 59 min
Bit rate                                 : 2 b/s
Count of elements                        : 82
Stream size                              : 1.80 KiB (0%)
Title                                    : Navi Parts
Language                                 : English
Default                                  : Yes
Forced                                   : Yes

Subtitle #11
ID                                       : 13
Format                                   : UTF-8
Codec ID                                 : S_TEXT/UTF8
Codec ID/Info                            : UTF-8 Plain Text
Duration                                 : 2 h 58 min
Bit rate                                 : 58 b/s
Count of elements                        : 1484
Stream size                              : 75.8 KiB (0%)
Language                                 : Arabic
Default                                  : No
Forced                                   : No

Subtitle #12
ID                                       : 14
Format                                   : UTF-8
Codec ID                                 : S_TEXT/UTF8
Codec ID/Info                            : UTF-8 Plain Text
Duration                                 : 2 h 57 min
Bit rate                                 : 34 b/s
Count of elements                        : 1431
Stream size                              : 44.7 KiB (0%)
Language                                 : Portuguese
Default                                  : No
Forced                                   : No

Subtitle #13
ID                                       : 15
Format                                   : ASS
Codec ID                                 : S_TEXT/ASS
Codec ID/Info                            : Advanced Sub Station Alpha
Duration                                 : 2 h 54 min
Bit rate                                 : 282 b/s
Count of elements                        : 1701
Compression mode                         : Lossless
Stream size                              : 360 KiB (0%)
Language                                 : Chinese
Default                                  : No
Forced                                   : No

Subtitle #14
ID                                       : 16
Format                                   : UTF-8
Codec ID                                 : S_TEXT/UTF8
Codec ID/Info                            : UTF-8 Plain Text
Duration                                 : 2 h 57 min
Bit rate                                 : 35 b/s
Count of elements                        : 1483
Stream size                              : 46.5 KiB (0%)
Language                                 : Danish
Default                                  : No
Forced                                   : No

Subtitle #15
ID                                       : 17
Format                                   : UTF-8
Codec ID                                 : S_TEXT/UTF8
Codec ID/Info                            : UTF-8 Plain Text
Duration                                 : 2 h 51 min
Bit rate                                 : 33 b/s
Count of elements                        : 1491
Stream size                              : 42.1 KiB (0%)
Language                                 : Dutch
Default                                  : No
Forced                                   : No

Subtitle #16
ID                                       : 18
Format                                   : UTF-8
Codec ID                                 : S_TEXT/UTF8
Codec ID/Info                            : UTF-8 Plain Text
Duration                                 : 2 h 57 min
Bit rate                                 : 58 b/s
Count of elements                        : 1498
Stream size                              : 76.8 KiB (0%)
Language                                 : Persian
Default                                  : No
Forced                                   : No

Subtitle #17
ID                                       : 19
Format                                   : UTF-8
Codec ID                                 : S_TEXT/UTF8
Codec ID/Info                            : UTF-8 Plain Text
Duration                                 : 2 h 57 min
Bit rate                                 : 32 b/s
Count of elements                        : 1465
Stream size                              : 42.5 KiB (0%)
Language                                 : French
Default                                  : No
Forced                                   : No

Subtitle #18
ID                                       : 20
Format                                   : UTF-8
Codec ID                                 : S_TEXT/UTF8
Codec ID/Info                            : UTF-8 Plain Text
Duration                                 : 2 h 49 min
Bit rate                                 : 100 b/s
Count of elements                        : 1489
Stream size                              : 124 KiB (0%)
Language                                 : Greek
Default                                  : No
Forced                                   : No

Subtitle #19
ID                                       : 21
Format                                   : ASS
Codec ID                                 : S_TEXT/ASS
Codec ID/Info                            : Advanced Sub Station Alpha
Duration                                 : 2 h 52 min
Bit rate                                 : 90 b/s
Count of elements                        : 1487
Compression mode                         : Lossless
Stream size                              : 114 KiB (0%)
Language                                 : Vietnamese
Default                                  : No
Forced                                   : No

Subtitle #20
ID                                       : 22
Format                                   : UTF-8
Codec ID                                 : S_TEXT/UTF8
Codec ID/Info                            : UTF-8 Plain Text
Duration                                 : 2 h 50 min
Bit rate                                 : 41 b/s
Count of elements                        : 1494
Stream size                              : 51.8 KiB (0%)
Language                                 : Indonesian
Default                                  : No
Forced                                   : No

Subtitle #21
ID                                       : 23
Format                                   : UTF-8
Codec ID                                 : S_TEXT/UTF8
Codec ID/Info                            : UTF-8 Plain Text
Duration                                 : 2 h 50 min
Bit rate                                 : 33 b/s
Count of elements                        : 1493
Stream size                              : 42.2 KiB (0%)
Language                                 : Norwegian
Default                                  : No
Forced                                   : No

Subtitle #22
ID                                       : 24
Format                                   : UTF-8
Codec ID                                 : S_TEXT/UTF8
Codec ID/Info                            : UTF-8 Plain Text
Duration                                 : 2 h 49 min
Bit rate                                 : 43 b/s
Count of elements                        : 1523
Stream size                              : 54.0 KiB (0%)
Language                                 : Spanish
Default                                  : No
Forced                                   : No

Subtitle #23
ID                                       : 25
Format                                   : UTF-8
Codec ID                                 : S_TEXT/UTF8
Codec ID/Info                            : UTF-8 Plain Text
Duration                                 : 2 h 57 min
Bit rate                                 : 35 b/s
Count of elements                        : 1497
Stream size                              : 45.6 KiB (0%)
Language                                 : Swedish
Default                                  : No
Forced                                   : No

Subtitle #24
ID                                       : 26
Format                                   : UTF-8
Codec ID                                 : S_TEXT/UTF8
Codec ID/Info                            : UTF-8 Plain Text
Duration                                 : 2 h 49 min
Bit rate                                 : 92 b/s
Count of elements                        : 1492
Stream size                              : 115 KiB (0%)
Language                                 : Thai
Default                                  : No
Forced                                   : No

Menu
00:00:00.000                             : en:Lost Soul
00:05:19.569                             : en:A New World
00:10:18.451                             : en:You Are Not in Kansas Anymore
00:11:41.910                             : en:"This Is Your Avatar Now, Jake."
00:15:53.202                             : en:"This Is Why We're Here..."
00:23:48.886                             : en:Meeting Trudy
00:24:33.994                             : en:Colonel Quaritch
00:27:48.542                             : en:First Sortie
00:30:21.611                             : en:Abandoned Schoolhouse
00:31:58.458                             : en:Thanator Chase
00:37:10.520                             : en:A Sign
00:39:02.048                             : en:Viperwolves
00:41:12.470                             : en:Neytiri
00:49:10.906                             : en:The Omaticaya Clan
00:55:36.208                             : en:Covert Report
01:01:03.410                             : en:The Hallelujah Mountains
01:06:57.221                             : en:Learn Fast or Die
01:11:44.216                             : en:A Mother's Pain
01:18:01.885                             : en:Banshee Rookery
01:22:32.114                             : en:First Flight
01:26:06.703                             : en:Clan Hunt
01:27:48.430                             : en:Last Shadow
01:32:54.402                             : en:A Son of the Omaticaya
01:37:30.636                             : en:Willow Glade Destruction
01:46:43.230                             : en:Conflict Escalation
01:49:56.590                             : en:"You Will Never Be One of the People!"
01:51:47.576                             : en:Assault on Home Tree
01:58:24.889                             : en:Aftermath
02:02:07.278                             : en:Escape From Hell's Gate
02:07:45.658                             : en:"There's Something We Gotta Do..."
02:09:24.548                             : en:Toruk Macto
02:12:30.609                             : en:"She's Real"
02:15:57.357                             : en:Recuiting the Clans
02:19:25.649                             : en:Preamble to Battle
02:23:53.625                             : en:Battle for Pandora
02:32:07.285                             : en:Fall of the Heroes
02:34:46.902                             : en:Eywa
02:39:56.253                             : en:Quaritch Fight
02:46:24.808                             : en:"I See You"
02:46:42.492                             : en:My Brother
02:48:50.787                             : en:Transformation
02:51:26.067                             : en:End Credits

Screencaps

Download

File: Avatar (2009) Extended [2160p x265 10bit FS80 Joy].mkv (19.3 GB)

Movie: Google Drive

2 thoughts on “Avatar (2009) EE (2160p UpRez BluRay x265 HEVC 10bit AAC 5.1 Joy)

Leave a Reply